iTunes

1+1

iTunes

мы

iTunes

1

iTunes

Чернобыль

iTunes

Ральф против интернета

Лицензия

ПШазам

Лицензия

Игра престолов

Лицензия

30
pack

ВАЖНО

!!Акция!!

Alien_RageХит недели

RePack

Resident Evil 21

ИГРА 18+

pack

RePack

Metro:Exodus

!!Акция!!

Alien_Rage

RePack

fifa19

RePack

Assassins Creed: Odyssey

RePack

NEED FOR SPEED™ PAYBACK

3 сезон

9 сезон

Бесстыжие 9 сезон

Все сериалы

все сериалы на PB.wtf

RePack

FAR CRY 5
Ребята, катастрофически не хватает 7730р. для оплаты серверов за АВГУСТ (всвязи с блокировками трафик упал в 3 раза), 1-2р., выручайте.
  

Каждому своё / Everybody Wants Some!! (Ричард Линклейтер) [2016, комедия, WEB-DLRip ] [iTunes] piratbit.cc

Каждому своё через торрент piratbit.cc

Размер: 1.37 GB | Добавлен: 3 года 4 мес. назад | Торрент скачан:951 раз
Скачать  

30-04-2016 11:34 Каждому своё Скачать торрент  

Каждому своё / Everybody Wants Some!!«Here for a Good Time Not a Long Time»
Год выпуска » 2016
Страна » США
Жанр » комедия
Продолжительность » 01:51:50
Перевод » Дублированный [iTunes]
Субтитры » Отсутствуют

В ролях
»Блейк Дженнер / Blake Jenner (Jake), Джастон Стрит / Juston Street (Jay), Райан Гузман / Ryan Guzman (Roper), Тайлер Хэклин / Tyler Hoechlin (McReynolds), Уайатт Расселл / Wyatt Russell (Willoughby), Глен Пауэлл / Glen Powell (Finnegan), Темпл Бэйкер / Temple Baker (Plummer), Дж. Куинтон Джонсон / J. Quinton Johnson (Dale)


Режиссёр
» Ричард Линклейтер

» Сексуальная революция и любовь, пьяные тусовки и травка, брендовые шмотки и топовая музыка… Первокурсник Джейк получает комнату в общежитии колледжа и погружается в порочный водоворот беззаботной жизни Америки 80-х. Он впервые познает вкус свободы и взрослой жизни, пока даже не задумываясь о последствиях.

• Качество » WEB-DLRip
• Формат » АVI
• Видео кодек » XviD
• Аудио кодек » AC3
• Видео »1356 Кбит/сек, 720x384 , 25.000 fps
• Аудио » Русский (AC-3/ 6 ch / 384 kbps / 48,0 КГц / 16 bit )




Бюджет: $28 000 000
Бюджет: $10 000 000
Сборы в США: $2 358 247
Сборы в России: $55 419
Зрители: Россия 14.6 тыс.
Премьера (мир): 11 марта 2016
Премьера (РФ): 7 апреля 2016
Релиз на DVD: 18 июля 2016, «Парадиз Медиа»
Рейтинг MPAA: Лицам до 17 лет обязательно присутствие взрослого
Общее
Полное имя : C:\Users\DRON & LeXuZ\Desktop\KaGDoMu.Svoio.2O16.D.WEB-DLRip.14OOMB.avi
Формат : AVI
Формат/Информация : Audio Video Interleave
Размер файла : 1,37 Гбайт
Продолжительность : 1 ч. 51 м.
Общий поток : 1749 Кбит/сек
Программа кодирования : VirtualDubMod 1.5.10.2 (build 2540/release)
Библиотека кодирования : VirtualDubMod build 2540/release

Видео
Идентификатор : 0
Формат : MPEG-4 Visual
Профиль формата : Advanced Simple@L5
Параметр BVOP формата : 2
Параметр QPel формата : Нет
Параметр GMC формата : Без точки перехода
Параметр матрицы формата : Default (MPEG)
Идентификатор кодека : XVID
Идентификатор кодека/Подсказка : XviD
Продолжительность : 1 ч. 51 м.
Битрейт : 1356 Кбит/сек
Ширина : 720 пикселей
Высота : 384 пикселя
Соотношение сторон : 1,85:1
Частота кадров : 25,000 кадров/сек
Цветовое пространство : YUV
Субдискретизация насыщенности : 4:2:0
Битовая глубина : 8 бит
Тип развёртки : Прогрессивная
Метод сжатия : С потерями
Бит/(Пиксели*Кадры) : 0.196
Размер потока : 1,06 Гбайт (77%)
Библиотека кодирования : XviD 1.2.1 (UTC 2008-12-04)

Аудио
Идентификатор : 1
Формат : AC-3
Формат/Информация : Audio Coding 3
Расширение режима : CM (complete main)
Параметр Endianness формата : Big
Идентификатор кодека : 2000
Продолжительность : 1 ч. 51 м.
Вид битрейта : Постоянный
Битрейт : 384 Кбит/сек
Каналы : 6 каналов
Расположение каналов : Front: L C R, Side: L R, LFE
Частота : 48,0 КГц
Битовая глубина : 16 бит
Метод сжатия : С потерями
Задержка видео : 8 мс.
Размер потока : 307 Мбайт (22%)
Выравнивание : Разделение по промежуткам
Продолжительность промежутка : 40 мс. (1,00 видеокадр)
Время предзагрузки промежутка : 500 мс.
[/code]
скриншот   скриншот   скриншот  
piratbit.cc



Скачать Каждому своё через торрент http://i74.fastpic.ru/big/2015/1218/b5/c39d072d168dbcde95d1a17f670689b5.gif Скачать фильм Каждому своё через торрент бесплантно в хорошем качестве В ролях »Блейк Дженнер / Blake Jenner (Jake), Джастон Стрит / Juston Street (Jay), Райан Гузман / Ryan Guzman (Roper), Тайлер Хэклин / ... 8.7 10 20
Торрент: Зарегистрирован [2016-04-30 11:34] · скачан: 951 раз
Статус: √ проверено
Размер: 1.37 GB
Как cкачать? Как скачать Каждому своё через торрент | qTorrent

% Раздел Тема Автор DL S | L
Релизы по Парсеру [Игры, Сериалы и Фильмы и другое...] [ 1.45 GB ] Каждому своё / Everybody Wants Some HDRip / Ворон Скачать
1 | 0
Релизы по Парсеру [Игры, Сериалы и Фильмы и другое...] [ 10.6 GB ] Каждому своё / Everybody Wants Some! BDRip 1080p / Ворон Скачать
1 | 0
Фильмы 2016 [DVDrip, WEB-DLRip, HDrip] (DUB, MVO) [ 2.05 GB ] Каждому своё / Everybody Wants Some!! [2016 WEB-DLRip ] $-DRON-$ Скачать
1 | 0
Фильмы (WEB-DL 720p, 1080p) [ 4.29 GB ] Каждому своё / Everybody Wants Some!! [2016 WEB-DL 1080p ] $-DRON-$ Скачать
1 | 0
Фильмы 2016 [DVDrip, WEB-DLRip, HDrip] (DUB, MVO) [ 2.05 GB ] Каждому своё / Everybody Wants Some!! [2016 WEB DLRip-AVC] $-DRON-$ Скачать
1 | 0
Фильмы 2016 [DVDrip, WEB-DLRip, HDrip] (DUB, MVO) [ 758 MB ] Каждому своё / Everybody Wants Some!! [2016 WEB-DLRip by _Один_777] Dub () Один 777 Скачать
1 | 0


>> Регистрируемся здесь <<






Отзывы и комментарии о схеме читаем и пишем здесь: ---> Отзывы и комментарии о схеме

Новые благодарочки в телеграм довольных пользователей:
скриншот   скриншот   скриншот   скриншот   скриншот
    Дорогой пользователь! Огромная просьба, поблагодарите релизера, оцените раздачу и оставьте свои комментарий, если Вы скачали Каждому своё через торрент бесплатно! Внесите свою лепту в развитие PiratBit!
    Комментировать посты могут только пользователи прошедшие не сложную регистрацию
    Показать сообщения:    

    Каждому своё через торрент
    Скачать бесплатно Каждому своё
    Каждому своё скачать торрент
    Каждому своё смотреть онлайн
    Cкачать фильм Каждому своё бесплатно
    Каждому своё скачать торрент в хорошем качестве
    Каждому своё смотреть онлайн бесплатно в хорошем качестве


    Вы не можете начинать темы
    Вы не можете отвечать на сообщения
    Вы не можете редактировать свои сообщения
    Вы не можете удалять свои сообщения
    Вы не можете голосовать в опросах
    Вы не можете прикреплять файлы к сообщениям
    Вы можете скачивать файлы