iTunes

1+1

iTunes

мы

iTunes

1

iTunes

Чернобыль

iTunes

Ральф против интернета

Лицензия

ПШазам

Лицензия

Игра престолов

Лицензия

30
pack

ВАЖНО

!!Акция!!

Alien_RageХит недели

RePack

Resident Evil 21

ИГРА 18+

pack

RePack

Metro:Exodus

!!Акция!!

Alien_Rage

RePack

fifa19

RePack

Assassins Creed: Odyssey

RePack

NEED FOR SPEED™ PAYBACK

3 сезон

9 сезон

Бесстыжие 9 сезон

Все сериалы

все сериалы на PB.wtf

RePack

FAR CRY 5
Ребята, катастрофически не хватает 7730р. для оплаты серверов за АВГУСТ (всвязи с блокировками трафик упал в 3 раза), 1-2р., выручайте.
  

Каждому своё / Everybody Wants Some!! (Ричард Линклейтер) [2016, комедия, WEB DLRip-AVC] Дублированный [iTunes] piratbit.cc

Каждому своё через торрент piratbit.cc

Размер: 2.05 GB | Добавлен: 3 года 4 мес. назад | Торрент скачан:1404 раза
Скачать  

03-05-2016 09:01 Каждому своё Скачать торрент  

Каждому своё / Everybody Wants Some!!«Here for a Good Time Not a Long Time»
Год выпуска » 2016
Страна » США
Жанр » комедия
Продолжительность » 01:51:50
Перевод » Дублированный [iTunes]
Субтитры » Отсутствуют

В ролях
»Блейк Дженнер / Blake Jenner (Jake), Джастон Стрит / Juston Street (Jay), Райан Гузман / Ryan Guzman (Roper), Тайлер Хэклин / Tyler Hoechlin (McReynolds), Уайатт Расселл / Wyatt Russell (Willoughby), Глен Пауэлл / Glen Powell (Finnegan), Темпл Бэйкер / Temple Baker (Plummer), Дж. Куинтон Джонсон / J. Quinton Johnson (Dale)


Режиссёр
» Ричард Линклейтер

» Сексуальная революция и любовь, пьяные тусовки и травка, брендовые шмотки и топовая музыка… Первокурсник Джейк получает комнату в общежитии колледжа и погружается в порочный водоворот беззаботной жизни Америки 80-х. Он впервые познает вкус свободы и взрослой жизни, пока даже не задумываясь о последствиях.

• Качество » WEB DLRip-AVC
• Формат » MKV
• Видео кодек » AVC
• Аудио кодек » AC3
• Видео »AVC at 2 240 kb/s, 1024x550 at 25.000 fps
• Аудио » Русский (AC-3/ 6 ch / 384 kbps / 48,0 КГц / 16 bit )




Бюджет: $10 000 000
Сборы в США: $2 358 247
Сборы в России: $55 419
Зрители: Россия 14.6 тыс.
Премьера (мир): 11 марта 2016
Премьера (РФ): 7 апреля 2016
Релиз на DVD: 18 июля 2016, «Парадиз Медиа»
Рейтинг MPAA: Лицам до 17 лет обязательно присутствие взрослого
Уникальный идентификатор : 249311876872802537180275929941365283942 (0xBB8FB88DF4A5D102858684652BE8DC66)
Полное имя : KaGDoMu.Svoio.2O16.WEB DLRip-AVC.mkv
Формат : Matroska
Версия формата : Version 2
Размер файла : 2,05 Гбайт
Продолжительность : 1 ч. 51 м.
Общий поток : 2625 Кбит/сек
Дата кодирования : UTC 2016-04-30 13:37:17
Программа кодирования : mkvmerge v7.8.0 ('River Man') 32bit built on Apr 3 2015 12:11:22
Библиотека кодирования : libebml v1.3.1 + libmatroska v1.4.2

Видео
Идентификатор : 1
Формат : AVC
Формат/Информация : Advanced Video Codec
Профиль формата : High@L4.1
Параметр CABAC формата : Да
Параметр ReFrames формата : 8 кадров
Идентификатор кодека : V_MPEG4/ISO/AVC
Продолжительность : 1 ч. 51 м.
Битрейт : 2240 Кбит/сек
Ширина : 1024 пикселя
Высота : 550 пикселей
Соотношение сторон : 1,85:1
Режим частоты кадров : Постоянный
Частота кадров : 25,000 кадров/сек
Цветовое пространство : YUV
Субдискретизация насыщенности : 4:2:0
Битовая глубина : 8 бит
Тип развёртки : Прогрессивная
Бит/(Пиксели*Кадры) : 0.159
Размер потока : 1,71 Гбайт (83%)
Библиотека кодирования : x264 core 146 r2538 121396c
Настройки программы : cabac=1 / ref=8 / deblock=1:-2:-2 / analyse=0x3:0x113 / me=umh / subme=11 / psy=1 / psy_rd=1.00:0.20 / mixed_ref=1 / me_range=32 / chroma_me=1 / trellis=2 / 8x8dct=1 / cqm=0 / deadzone=21,11 / fast_pskip=0 / chroma_qp_offset=-3 / threads=6 / lookahead_threads=1 / sliced_threads=0 / nr=0 / decimate=0 / interlaced=0 / bluray_compat=0 / constrained_intra=0 / bframes=10 / b_pyramid=2 / b_adapt=2 / b_bias=0 / direct=3 / weightb=1 / open_gop=0 / weightp=2 / keyint=240 / keyint_min=24 / scenecut=40 / intra_refresh=0 / rc=2pass / mbtree=0 / bitrate=2240 / ratetol=1.0 / qcomp=0.60 / qpmin=0 / qpmax=69 / qpstep=4 / cplxblur=20.0 / qblur=0.5 / ip_ratio=1.40 / pb_ratio=1.30 / aq=1:1.00
Default : Да
Forced : Нет

Аудио
Идентификатор : 2
Формат : AC-3
Формат/Информация : Audio Coding 3
Расширение режима : CM (complete main)
Параметр Endianness формата : Big
Идентификатор кодека : A_AC3
Продолжительность : 1 ч. 51 м.
Вид битрейта : Постоянный
Битрейт : 384 Кбит/сек
Каналы : 6 каналов
Расположение каналов : Front: L C R, Side: L R, LFE
Частота : 48,0 КГц
Частота кадров : 31,250 кадров/сек (1536 spf)
Метод сжатия : С потерями
Размер потока : 307 Мбайт (15%)
Default : Да
Forced : Нет
[/code]
скриншот   скриншот   скриншот   скриншот   скриншот   скриншот  
piratbit.cc



Скачать Каждому своё через торрент http://i74.fastpic.ru/big/2015/1218/b5/c39d072d168dbcde95d1a17f670689b5.gif Скачать фильм Каждому своё через торрент бесплантно в хорошем качестве В ролях »Блейк Дженнер / Blake Jenner (Jake), Джастон Стрит / Juston Street (Jay), Райан Гузман / Ryan Guzman (Roper), Тайлер Хэклин / ... 9 10 37
Info! Золотая раздача, скачанное не засчитывается.
Торрент: Зарегистрирован [2016-05-03 09:01] · скачан: 1 404 раз
Статус: √ проверено
Размер: 2.05 GB
Как cкачать? Как скачать Каждому своё через торрент | qTorrent

% Раздел Тема Автор DL S | L
Релизы по Парсеру [Игры, Сериалы и Фильмы и другое...] [ 1.45 GB ] Каждому своё / Everybody Wants Some HDRip / Ворон Скачать
1 | 0
Релизы по Парсеру [Игры, Сериалы и Фильмы и другое...] [ 10.6 GB ] Каждому своё / Everybody Wants Some! BDRip 1080p / Ворон Скачать
1 | 0
Фильмы 2016 [DVDrip, WEB-DLRip, HDrip] (DUB, MVO) [ 2.05 GB ] Каждому своё / Everybody Wants Some!! [2016 WEB-DLRip ] $-DRON-$ Скачать
1 | 0
Фильмы (WEB-DL 720p, 1080p) [ 4.29 GB ] Каждому своё / Everybody Wants Some!! [2016 WEB-DL 1080p ] $-DRON-$ Скачать
1 | 0
Фильмы 2016 [DVDrip, WEB-DLRip, HDrip] (DUB, MVO) [ 1.37 GB ] Каждому своё / Everybody Wants Some!! [2016 WEB-DLRip ] $-DRON-$ Скачать
1 | 0
Фильмы 2016 [DVDrip, WEB-DLRip, HDrip] (DUB, MVO) [ 758 MB ] Каждому своё / Everybody Wants Some!! [2016 WEB-DLRip by _Один_777] Dub () Один 777 Скачать
1 | 0


>> Регистрируемся здесь <<






Отзывы и комментарии о схеме читаем и пишем здесь: ---> Отзывы и комментарии о схеме

Новые благодарочки в телеграм довольных пользователей:
скриншот   скриншот   скриншот   скриншот   скриншот

03-05-2016 11:47 Каждому своё Скачать торрент  

скучная дичь, по описанию ожидал большего. выключил на 15й минутеpiratbit.cc



04-05-2016 04:30 Каждому своё Скачать торрент  

откуда такой IMBD ? реально скучная хрень. Думал , что действительно смешной, после самого начала с проломом потолка, но потом, жутко скучные беспрерывные разговоры. Вырубил через 20 минут (пытался осилить)piratbit.cc



06-05-2016 11:25 Каждому своё Скачать торрент  

Прикольный фильмец, напомнил о моем студенчестве.piratbit.cc



06-05-2016 11:26 Каждому своё Скачать торрент  

Каждому свое -)piratbit.cc



07-05-2016 11:44 Каждому своё Скачать торрент  

Я все таки досмотрел до конца, все чего то ждал, хоть чего то... Неожиданно как то нудно, скучно и... хрень короче!piratbit.cc



08-05-2016 13:58 Каждому своё Скачать торрент  

а о чем этот фильм? - да вообще не о чем!!! зря потратил полтора часа жизни!!!piratbit.cc



08-05-2016 16:41 Каждому своё Скачать торрент  

Фильм не о чем...Отстой.piratbit.cc



08-05-2016 19:21 Каждому своё Скачать торрент  

мля, кто это снимал? убейти дебила. лучше бы деньги в детский дом отдалиpiratbit.cc



09-05-2016 13:22 Каждому своё Скачать торрент  

0 балооов!!!!качал ради рейтинга imdb У меня нюх на фильмы ЕРьма сють фильма
приехал знакомство бар бухло дискотека знакомство игра всё что ранее написано нудно в фильме и конец учеба
piratbit.cc



    Дорогой пользователь! Огромная просьба, поблагодарите релизера, оцените раздачу и оставьте свои комментарий, если Вы скачали Каждому своё через торрент бесплатно! Внесите свою лепту в развитие PiratBit!
    Комментировать посты могут только пользователи прошедшие не сложную регистрацию
    Показать сообщения:    

    Каждому своё через торрент
    Скачать бесплатно Каждому своё
    Каждому своё скачать торрент
    Каждому своё смотреть онлайн
    Cкачать фильм Каждому своё бесплатно
    Каждому своё скачать торрент в хорошем качестве
    Каждому своё смотреть онлайн бесплатно в хорошем качестве


    Вы не можете начинать темы
    Вы не можете отвечать на сообщения
    Вы не можете редактировать свои сообщения
    Вы не можете удалять свои сообщения
    Вы не можете голосовать в опросах
    Вы не можете прикреплять файлы к сообщениям
    Вы можете скачивать файлы