Лицензия

30

iTunes

мы

iTunes

1

1 сезон

Чернобыль

1 сезон

Ральф против интернета

MVO

Покемон. Детектив Пикачу

8 сезон

Игра престолов

iTunes

1+1

ИГРА 18+

pack

ВАЖНО

!!Акция!!

Alien_RageХит недели

RePack

Resident Evil 21
pack

RePack

Metro:Exodus

!!Акция!!

Alien_Rage

RePack

fifa19

RePack

Assassins Creed: Odyssey

RePack

NEED FOR SPEED™ PAYBACK

3 сезон

9 сезон

Бесстыжие 9 сезон

Все сериалы

все сериалы на PB.wtf

RePack

FAR CRY 5
Ребята, катастрофически не хватает 2730р. для оплаты серверов за МАЙ (всвязи с блокировками трафик упал в 3 раза), 1-2р., выручайте.
  

Дедушка легкого поведения / Dirty Grandpa (Дэн Мазер) [2016, комедия, WEB-DLRip-AVC] DUB [iTunes] piratbit.cc

Дедушка легкого поведения через торрент piratbit.cc

Размер: 1.63 GB | Добавлен: 3 года 1 мес. назад | Торрент скачан:808 раз
Скачать  

03-05-2016 11:19 Дедушка легкого поведения Скачать торрент  

Dirty Grandpa«This is Jason. He's a little worried about his grandpa»
Год выпуска » 2016
Страна » США, Lionsgate, QED International, Josephson Entertainment
Жанр » Комедия
Продолжительность » 01:40:54
Перевод » Дублированный [iTunes]
Субтитры » Отсутствуют

В ролях
»Роберт Де Ниро, Зак Эфрон, Зои Дойч, Обри Плаза, Джейсон Манцукас, Дермот Малруни, Джулианна Хаф, Джеффри Бауэр-Чепман, Брэндон Майкал Смит, Джейк Пикинг


Режиссёр
» Дэн Мазер

» Джейсон, покладистый правильный парень, накануне свадьбы вляпывается в увеселительную поездку к морю со своим дедом, отставным генералом с легким нравом, бурной фантазией и вполне определенными потребностями… И, похоже, дедские каникулы изменят жизнь Джейсона навсегда!

• Качество » WEB-DLRip-AVC
• Формат » MKV
• Видео кодек » AVC
• Аудио кодек » AC3
• Видео »AVC, 1040x432 (2.40:1), 1900 kbps, 25 fps, 0,169 bpp
• Аудио » Русский (AC-3/ 6 ch / 384 kbps / 48,0 КГц / 16 bit )



•Рип » and77200


Сборы в США: $35 593 113
Сборы в России: $55 419
Сборы в мире: + $53 287 893 = $88 881 006
Зрители: Россия 1.15 млн
Премьера (мир): 20 января 2016
Премьера (РФ): 21 января 2016, «n/a»
Рейтинг MPAA: Лицам до 17 лет обязательно присутствие взрослого
General
Unique ID : 222293137392297887094359234564445641130 (0xA73C19D9673F4EA79AED021DF8EB19AA)
Complete name : G:\Торрент\Dirty.Grandpa.2016.Dub.WEB-DLRip-AVC.mkv
Format : Matroska
Format version : Version 4 / Version 2
File size : 1.63 GiB
Duration : 1h 41mn
Overall bit rate : 2 285 Kbps
Encoded date : UTC 2016-05-03 09:34:02
Writing application : mkvmerge v7.8.0 ('River Man') 32bit built on Mar 27 2015 16:18:02
Writing library : libebml v1.3.1 + libmatroska v1.4.2
DURATION : 01:41:51.680000000
NUMBER_OF_FRAMES : 190990
NUMBER_OF_BYTES : 293360640
_STATISTICS_WRITING_APP : mkvmerge v7.8.0 ('River Man') 32bit built on Mar 27 2015 16:18:02
_STATISTICS_WRITING_DATE_UT : 2016-05-03 09:34:02
_STATISTICS_TAGS : BPS DURATION NUMBER_OF_FRAMES NUMBER_OF_BYTES

Video
ID : 1
Format : AVC
Format/Info : Advanced Video Codec
Format profile : High@L4.1
Format settings, CABAC : Yes
Format settings, ReFrames : 5 frames
Codec ID : V_MPEG4/ISO/AVC
Duration : 1h 41mn
Bit rate : 1 900 Kbps
Width : 1 040 pixels
Height : 432 pixels
Display aspect ratio : 2.40:1
Frame rate mode : Constant
Frame rate : 25.000 fps
Color space : YUV
Chroma subsampling : 4:2:0
Bit depth : 8 bits
Scan type : Progressive
Bits/(Pixel*Frame) : 0.169
Stream size : 1.32 GiB (81%)
Writing library : x264 core 148 r2665M a01e339
Encoding settings : cabac=1 / ref=5 / deblock=1:-1:-1 / analyse=0x3:0x133 / me=umh / subme=9 / psy=1 / psy_rd=1.00:0.15 / mixed_ref=1 / me_range=16 / chroma_me=1 / trellis=1 / 8x8dct=1 / cqm=0 / deadzone=21,11 / fast_pskip=1 / chroma_qp_offset=-3 / threads=4 / lookahead_threads=1 / sliced_threads=0 / nr=0 / decimate=1 / interlaced=0 / bluray_compat=0 / constrained_intra=0 / bframes=5 / b_pyramid=2 / b_adapt=2 / b_bias=0 / direct=3 / weightb=1 / open_gop=0 / weightp=2 / keyint=250 / keyint_min=25 / scenecut=40 / intra_refresh=0 / rc_lookahead=40 / rc=2pass / mbtree=1 / bitrate=1900 / ratetol=1.0 / qcomp=0.60 / qpmin=0 / qpmax=69 / qpstep=4 / cplxblur=20.0 / qblur=0.5 / ip_ratio=1.40 / aq=1:1.00
Language : English
Default : Yes
Forced : No
DURATION : 01:41:51.720000000
NUMBER_OF_FRAMES : 152793
NUMBER_OF_BYTES : 1450791837
_STATISTICS_WRITING_APP : mkvmerge v7.8.0 ('River Man') 32bit built on Mar 27 2015 16:18:02
_STATISTICS_WRITING_DATE_UT : 2016-05-03 09:34:02
_STATISTICS_TAGS : BPS DURATION NUMBER_OF_FRAMES NUMBER_OF_BYTES

Audio
ID : 2
Format : AC-3
Format/Info : Audio Coding 3
Mode extension : CM (complete main)
Format settings, Endianness : Big
Codec ID : A_AC3
Duration : 1h 41mn
Bit rate mode : Constant
Bit rate : 384 Kbps
Channel(s) : 6 channels
Channel positions : Front: L C R, Side: L R, LFE
Sampling rate : 48.0 KHz
Compression mode : Lossy
Delay relative to video : 32ms
Stream size : 280 MiB (17%)
Language : Russian
Default : Yes
Forced : No
[/code]
скриншот   скриншот   скриншот   скриншот   скриншот   скриншот   скриншот   скриншот   скриншот  
piratbit.cc



Скачать Дедушка легкого поведения через торрент http://pic1.kartinco.top/images/10/zkm8s.jpg Скачать фильм Дедушка легкого поведения через торрент бесплантно в хорошем качестве В ролях »Роберт Де Ниро, Зак Эфрон, Зои Дойч, Обри Плаза, Джейсон Манцукас, Дермот Малруни, Джулианна Хаф, Джеффри Бауэр-Чепман, Брэндон ... 9.1 10 23
Торрент: Зарегистрирован [2016-05-03 11:19] · скачан: 808 раз
Статус: √ проверено
Размер: 1.63 GB
Как cкачать? Как скачать Дедушка легкого поведения через торрент | qTorrent

% Раздел Тема Автор DL S | L
Ultra HD (UHD: 2K, 4K, 8K) — видео сверхвысокой чёткости [ 51.88 GB ] Дедушка легкого поведения / Dirty Grandpa [2015 UHD BDRemux 2160p] DUB [Dolby Vision TV] sheker187 Скачать
1 | 0
Ultra HD (UHD: 2K, 4K, 8K) — видео сверхвысокой чёткости [ 57.84 GB ] Дедушка легкого поведения / Dirty Grandpa [2016 UHD BDRemux 2160p] [Театральная версия] [HDR: Dolby Vision + HDR10] bober100 Скачать
1 | 0
Ultra HD (UHD: 2K, 4K, 8K) — видео сверхвысокой чёткости [ 50.07 GB ] Дедушка легкого поведения / Dirty Grandpa [2016 UHD BDRemux 2160p] [Театральная версия] bober100 Скачать
1 | 0
Фильмы [HD 720p, 1080p] (Хороший звук DUB, MVO) [ 6.67 GB ] Дедушка легкого поведения / Dirty Grandpa [2016 BDRip 720p] [Unrated Cut] Dub potroks Скачать
1 | 0
Фильмы 2016 [DVDrip, WEB-DLRip, HDrip] (DUB, MVO) [ 1.46 GB ] Дедушка легкого поведения / Dirty Grandpa [2016 BDRip-AVC от sokol_ok] [Расширенная версия] Dub sokol_ok Скачать
3 | 0
Фильмы (Blu-ray, BD-Remux, HDDVD) [ 29.65 GB ] Дедушка легкого поведения / Dirty Grandpa [2016 BDRemux 1080p] от ExKinoRay / Расширенная версия / Russian Mafia Скачать
1 | 0
Фильмы 2016 [DVDrip, WEB-DLRip, HDrip] (DUB, MVO) [ 2.13 GB ] Дедушка легкого поведения / Dirty Grandpa [2016 BDRip-AVC] [Unrated Cut] Dub potroks Скачать
1 | 0


>> Регистрируемся здесь <<






Отзывы и комментарии о схеме читаем и пишем здесь: ---> Отзывы и комментарии о схеме

Новые благодарочки в телеграм довольных пользователей:
скриншот   скриншот   скриншот   скриншот   скриншот

04-05-2016 06:52 Дедушка легкого поведения Скачать торрент  

не протянул и 5 минут, юморок для школоты -писки, сиськи .... и это смешно?piratbit.cc



05-05-2016 05:16 Дедушка легкого поведения Скачать торрент  

Угарная комедия смотреть можно) piratbit.cc



09-05-2016 10:45 Дедушка легкого поведения Скачать торрент  

Посмотрел, забавная комедия Спасибо за раздачуpiratbit.cc



    Дорогой пользователь! Огромная просьба, поблагодарите релизера, оцените раздачу и оставьте свои комментарий, если Вы скачали Дедушка легкого поведения через торрент бесплатно! Внесите свою лепту в развитие PiratBit!
    Комментировать посты могут только пользователи прошедшие не сложную регистрацию
    Показать сообщения:    

    Дедушка легкого поведения через торрент
    Скачать бесплатно Дедушка легкого поведения
    Дедушка легкого поведения скачать торрент
    Дедушка легкого поведения смотреть онлайн
    Cкачать фильм Дедушка легкого поведения бесплатно
    Дедушка легкого поведения скачать торрент в хорошем качестве
    Дедушка легкого поведения смотреть онлайн бесплатно в хорошем качестве


    Вы не можете начинать темы
    Вы не можете отвечать на сообщения
    Вы не можете редактировать свои сообщения
    Вы не можете удалять свои сообщения
    Вы не можете голосовать в опросах
    Вы не можете прикреплять файлы к сообщениям
    Вы можете скачивать файлы