Лицензия

30

iTunes

мы

iTunes

1

1 сезон

Чернобыль

1 сезон

Ральф против интернета

MVO

Покемон. Детектив Пикачу

8 сезон

Игра престолов

iTunes

1+1

ИГРА 18+

pack

ВАЖНО

!!Акция!!

Alien_RageХит недели

RePack

Resident Evil 21
pack

RePack

Metro:Exodus

!!Акция!!

Alien_Rage

RePack

fifa19

RePack

Assassins Creed: Odyssey

RePack

NEED FOR SPEED™ PAYBACK

3 сезон

9 сезон

Бесстыжие 9 сезон

Все сериалы

все сериалы на PB.wtf

RePack

FAR CRY 5
Ребята, катастрофически не хватает 2730р. для оплаты серверов за МАЙ (всвязи с блокировками трафик упал в 3 раза), 1-2р., выручайте.
  

Разборка в Маниле / Showdown in Manila (Марк Дакаскос) [2016 г., боевик, HDRip, Дубляж "BD RUS"] piratbit.cc

Разборка в Маниле через торрент piratbit.cc

Размер: 736 MB | Добавлен: 3 года 1 мес. назад | Торрент скачан:107 раз
Скачать  

15-05-2016 18:14 Разборка в Маниле Скачать торрент  

Разборка в Маниле / Showdown in Manila
Год выпуска: 2016
Страна: США, Россия / Hollywood Storm
Жанр: боевик
Продолжительность: 01:26:07
Перевод: Дубляж (BD RUS)

Режиссер: Марк Дакаскос

IMDB 3.60 (635)


В ролях: Александр Невский, Каспер Ван Дин, Кэри-Хироюки Тагава, Марк Дакаскос, Маттиас Хьюз, Синтия Ротрок, Дон «Дракон» Уилсон, Оливье Грюнер, Тиа Каррере, Дмитрий Дюжев, Всеволод Кузнецов, Алексей Колган, Михаил Георгиу, Анастасия Лапина, Борис Шувалов

Описание: Частные детективы Ник и Чарли живут и работают в Маниле. Расследование убийства выводит их на след международного террориста по кличке «Призрак», лагерь которого находится в филиппинских джунглях. Не доверяя полиции, Ник и Чарли собирают небольшую команду смельчаков и отправляются в логово «Призрака», которое охраняет армия наемников-головорезов...

Качество: HDRip
Формат: AVI
Видео кодек: XviD
Аудио кодек: AC3
Видео: MPEG4, XviD, 640x344 (1.875), 25.000 fps, 1 054 Kbps (0.191 bit/pixel)
Аудио: MP3, 48.0 KHz, 2 ch, 128 Kbps, CBR

Общее
Полное имя : F:\кино\Разборка в Маниле.2016.D.HDRip.700mb.avi
Формат : AVI
Формат/Информация : Audio Video Interleave
Размер файла : 736 Мбайт
Продолжительность : 1 ч. 26 м.
Общий поток : 1195 Кбит/сек
Программа кодирования : Lavf56.40.101

Видео
Идентификатор : 0
Формат : MPEG-4 Visual
Профиль формата : Simple@L3
Параметр BVOP формата : Нет
Параметр QPel формата : Нет
Параметр GMC формата : Без точки перехода
Параметр матрицы формата : Default (H.263)
Идентификатор кодека : XVID
Идентификатор кодека/Подсказка : XviD
Продолжительность : 1 ч. 26 м.
Битрейт : 1054 Кбит/сек
Ширина : 640 пикселей
Высота : 344 пикселя
Соотношение сторон : 1,85:1
Частота кадров : 25,000 кадров/сек
Цветовое пространство : YUV
Субдискретизация насыщенности : 4:2:0
Битовая глубина : 8 бит
Тип развёртки : Прогрессивная
Метод сжатия : С потерями
Бит/(Пиксели*Кадры) : 0.191
Размер потока : 649 Мбайт (88%)
Библиотека кодирования : XviD 67

Аудио
Идентификатор : 1
Формат : MPEG Audio
Версия формата : Version 1
Профиль формата : Layer 3
Режим : Joint stereo
Идентификатор кодека : 55
Идентификатор кодека/Подсказка : MP3
Продолжительность : 1 ч. 26 м.
Вид битрейта : Постоянный
Битрейт : 128 Кбит/сек
Каналы : 2 канала
Частота : 48,0 КГц
Метод сжатия : С потерями
Размер потока : 78,9 Мбайт (11%)
Выравнивание : Соединение по промежуткам
Продолжительность промежутка : 24 мс. (0,60 видеокадр)

piratbit.cc



Скачать Разборка в Маниле через торрент http://pic.kartinco.top/images/11/v19k1.jpg Скачать фильм Разборка в Маниле через торрент бесплантно в хорошем качестве Описание: Частные детективы Ник и Чарли живут и работают в Маниле. Расследование убийства выводит их на след международного террориста по ... 6.4 10 10
Торрент: Зарегистрирован [2016-05-15 18:14] · скачан: 107 раз
Статус: √ проверено
Размер: 736 MB
Как cкачать? Как скачать Разборка в Маниле через торрент | qTorrent

% Раздел Тема Автор DL S | L
Фильмы (WEB-DL 720p, 1080p) [ 3.41 GB ] Разборка в Маниле / Showdown in Manila [2016 WEB-DL 1080p ] -Lexx- Скачать
1 | 0
Фильмы 2016 [DVDrip, WEB-DLRip, HDrip] (DUB, MVO) [ 2.07 GB ] Разборка в Маниле / Showdown in Manila [2016 Россия BDRip-AVC] Dub [Лизензия] Vitos03 Скачать
1 | 0
Фильмы 2016 [DVDrip, WEB-DLRip, HDrip] (DUB, MVO) [ 1.46 GB ] Разборка в Маниле / Showdown in Manila [2016 WEB-DLRip] ] Twi7ter Скачать
1 | 0
Фильмы 2016 [DVDrip, WEB-DLRip, HDrip] (DUB, MVO) [ 747 MB ] Разборка в Маниле / Showdown in Manila [2016 Россия WEB-DLRip by _Один_777] Dub () Один 777 Скачать
1 | 0
Фильмы 2016 [DVDrip, WEB-DLRip, HDrip] (DUB, MVO) [ 1.37 GB ] Разборка в Маниле / Showdown in Manila [2016 WEB-DLRip ] Ворон Скачать
1 | 0


>> Регистрируемся здесь <<






Отзывы и комментарии о схеме читаем и пишем здесь: ---> Отзывы и комментарии о схеме

Новые благодарочки в телеграм довольных пользователей:
скриншот   скриншот   скриншот   скриншот   скриншот

15-05-2016 19:54 Разборка в Маниле Скачать торрент  

15-05-2016 20:20 Разборка в Маниле Скачать торрент  

Какой набор треш актеров во главе с балбесом Невским)) Заценим.piratbit.cc



15-05-2016 20:41 Разборка в Маниле Скачать торрент  

vic010203 писал(а):

Какой набор треш актеров во главе с балбесом Невским)) Заценим.

Когда то некоторые были вполне нормальные актёрыpiratbit.cc



15-05-2016 21:56 Разборка в Маниле Скачать торрент  

zra писал(а):

vic010203 писал(а):

Какой набор треш актеров во главе с балбесом Невским)) Заценим.

Когда то некоторые были вполне нормальные актёры

все скатилисьpiratbit.cc



15-05-2016 22:15 Разборка в Маниле Скачать торрент  

0 из 10 НОЛЬ!! прекрасный фильм проходим мимоpiratbit.cc



16-05-2016 11:06 Разборка в Маниле Скачать торрент  

Невского хорошо охарактеризовал Голубочкин. Он сказал"КОНЧЕНЫЙ МРАКОБЕС БЛ Я ТЬ" и я полностью с ним согласен!piratbit.cc



16-05-2016 12:59 Разборка в Маниле Скачать торрент  

vic010203 писал(а):

Какой набор треш актеров во главе с балбесом Невским)) Заценим.

piratbit.cc



16-05-2016 17:12 Разборка в Маниле Скачать торрент  

А Сталона с неудержимыми лучше чтоли?piratbit.cc



    Дорогой пользователь! Огромная просьба, поблагодарите релизера, оцените раздачу и оставьте свои комментарий, если Вы скачали Разборка в Маниле через торрент бесплатно! Внесите свою лепту в развитие PiratBit!
    Комментировать посты могут только пользователи прошедшие не сложную регистрацию
    Показать сообщения:    

    Разборка в Маниле через торрент
    Скачать бесплатно Разборка в Маниле
    Разборка в Маниле скачать торрент
    Разборка в Маниле смотреть онлайн
    Cкачать фильм Разборка в Маниле бесплатно
    Разборка в Маниле скачать торрент в хорошем качестве
    Разборка в Маниле смотреть онлайн бесплатно в хорошем качестве


    Вы не можете начинать темы
    Вы не можете отвечать на сообщения
    Вы не можете редактировать свои сообщения
    Вы не можете удалять свои сообщения
    Вы не можете голосовать в опросах
    Вы не можете прикреплять файлы к сообщениям
    Вы можете скачивать файлы