iTunes

1+1

iTunes

мы

iTunes

1

iTunes

Чернобыль

iTunes

Ральф против интернета

Лицензия

ПШазам

Лицензия

Игра престолов

Лицензия

30
pack

ВАЖНО

!!Акция!!

Alien_RageХит недели

RePack

Resident Evil 21

ИГРА 18+

pack

RePack

Metro:Exodus

!!Акция!!

Alien_Rage

RePack

fifa19

RePack

Assassins Creed: Odyssey

RePack

NEED FOR SPEED™ PAYBACK

3 сезон

9 сезон

Бесстыжие 9 сезон

Все сериалы

все сериалы на PB.wtf

RePack

FAR CRY 5
Ребята, катастрофически не хватает 7730р. для оплаты серверов за АВГУСТ (всвязи с блокировками трафик упал в 3 раза), 1-2р., выручайте.
  

В активном поиске / How to Be Single (Кристиан Диттер / Christian Ditter) [2016, США, мелодрама, комедия, BDRip-AVC от sokol_ok] Dub [iTunes] piratbit.cc

В активном поиске через торрент piratbit.cc

Размер: 2.13 GB | Добавлен: 3 года 4 мес. назад | Торрент скачан:983 раза
Скачать  

16-05-2016 16:38 В активном поиске Скачать торрент  

В активном поиске
How to Be Single

«Welcome to the party»


Страна: США
Жанр: мелодрама, комедия

Год выпуска: 2016
Продолжительность: 01:49:49

Перевод: Профессиональный (полное дублирование) [Лицензия iTunes]
Cубтитры: русские (форсированные, полные), английские (полные, SDH)
Оригинальная аудиодорожка: английский

Режиссер: Кристиан Диттер / Christian Ditter

В ролях: Дакота Джонсон, Ребел Уилсон, Элисон Бри, Лесли Манн, Николас Браун, Джейсон Манцукас, Дэймон Уайанс мл., Колин Жост, Джейк Лэси, Андерс Холм, Сара Рамос, Ник Бейтман

Описание:
Устав от жизни со своим бойфрендом, Элис уходит от него, переезжает к старшей сестре Мэг, находит новую работу и обзаводится новой подругой Робин. Последняя оказывается страстной поклонницей ночных «отжигов» и пытается втянуть Элис в свою безумную жизнь, хотя та предпочитает чинные и продолжительные отношения пьяным знакомствам на вечеринках. Релиз:

Автор рипа: Stalker oK

Сэмпл

Качество видео: BDRip-AVC [How.To.Be.Single.2016.1080p.BluRay.REMUX.AVC.DTS-HD.MA.5.1-RARBG]
Формат видео: MKV
Видео кодек: AVC
Аудио кодек: AC3
Видео: 2204 Кбит/сек, 1056*440 (2,40:1), в 23,976 (24000/1001) кадра/сек, AVC
Аудио #1: русский, 384 Кбит/сек, 48,0 КГц, 6 каналов, AC-3
Аудио #2: английский, 192 Кбит/сек, 48,0 КГц, 2 канала, AC-3
Навигация по главам: есть

Общее
Уникальный идентификатор : 204211563471019090479497573339742346456 (0x99A1B76D0FC10FC89B01D7E1F8681CD8)
Полное имя : M:\1Rips\How to Be Single\How.to.Be.Single.2016.BDRip-AVC.Dub.2.18Gb.stalkerok.new-team.mkv
Формат : Matroska
Версия формата : Version 4 / Version 2
Размер файла : 2,13 Гбайт
Продолжительность : 1 ч. 49 м.
Общий поток : 2783 Кбит/сек
Название фильма : How to Be Single (2016) (New-Team) (Rip by Stalker oK)
Дата кодирования : UTC 2016-05-16 16:32:07
Программа кодирования : mkvmerge v8.6.1 ('Flying') 64bit
Библиотека кодирования : libebml v1.3.3 + libmatroska v1.4.4

Видео
Идентификатор : 1
Формат : AVC
Формат/Информация : Advanced Video Codec
Профиль формата : High@L4.1
Параметр CABAC формата : Да
Параметр ReFrames формата : 14 кадров
Идентификатор кодека : V_MPEG4/ISO/AVC
Продолжительность : 1 ч. 49 м.
Битрейт : 2204 Кбит/сек
Ширина : 1056 пикселей
Высота : 440 пикселей
Соотношение сторон : 2,40:1
Режим частоты кадров : Постоянный
Частота кадров : 23,976 (24000/1001) кадра/сек
Цветовое пространство : YUV
Субдискретизация насыщенности : 4:2:0
Битовая глубина : 8 бит
Тип развёртки : Прогрессивная
Бит/(Пиксели*Кадры) : 0.198
Размер потока : 1,69 Гбайт (79%)
Заголовок : How to Be Single (2016) (New-Team) (Rip by Stalker oK)
Библиотека кодирования : x264 core 148 r2665kMod a01e339
Настройки программы : cabac=1 / ref=14 / deblock=1:-3:-2 / analyse=0x3:0x133 / me=umh / subme=10 / psy=1 / fade_compensate=0.00 / psy_rd=1.00:0.00 / mixed_ref=1 / me_range=32 / chroma_me=1 / trellis=2 / 8x8dct=1 / cqm=0 / deadzone=21,11 / fast_pskip=0 / chroma_qp_offset=-2 / threads=12 / lookahead_threads=3 / sliced_threads=0 / nr=0 / decimate=0 / interlaced=0 / bluray_compat=0 / constrained_intra=0 / fgo=0 / bframes=14 / b_pyramid=2 / b_adapt=2 / b_bias=0 / direct=3 / weightb=1 / open_gop=0 / weightp=2 / keyint=240 / keyint_min=23 / scenecut=40 / intra_refresh=0 / rc_lookahead=60 / rc=2pass / mbtree=0 / bitrate=2204 / ratetol=1.0 / qcomp=0.65 / qpmin=0 / qpmax=69 / qpstep=4 / cplxblur=20.0 / qblur=0.5 / vbv_maxrate=50000 / vbv_bufsize=62500 / nal_hrd=none / filler=0 / ip_ratio=1.40 / pb_ratio=1.30 / aq=1:0.85
Default : Да
Forced : Нет

Аудио #1
Идентификатор : 2
Формат : AC-3
Формат/Информация : Audio Coding 3
Расширение режима : CM (complete main)
Параметр Endianness формата : Big
Идентификатор кодека : A_AC3
Продолжительность : 1 ч. 49 м.
Вид битрейта : Постоянный
Битрейт : 384 Кбит/сек
Каналы : 6 каналов
Расположение каналов : Front: L C R, Side: L R, LFE
Частота : 48,0 КГц
Частота кадров : 31,250 кадров/сек (1536 spf)
Метод сжатия : С потерями
Размер потока : 302 Мбайт (14%)
Язык : Russian
Default : Да
Forced : Нет

Аудио #2
Идентификатор : 3
Формат : AC-3
Формат/Информация : Audio Coding 3
Расширение режима : CM (complete main)
Параметр Endianness формата : Big
Идентификатор кодека : A_AC3
Продолжительность : 1 ч. 49 м.
Вид битрейта : Постоянный
Битрейт : 192 Кбит/сек
Каналы : 2 канала
Расположение каналов : Front: L R
Частота : 48,0 КГц
Частота кадров : 31,250 кадров/сек (1536 spf)
Метод сжатия : С потерями
Размер потока : 151 Мбайт (7%)
Язык : English
Default : Нет
Forced : Нет

Текст #1
Идентификатор : 4
Формат : UTF-8
Идентификатор кодека : S_TEXT/UTF8
Идентификатор кодека/Информация : UTF-8 Plain Text
Продолжительность : 1 ч. 43 м.
Битрейт : 3 бит/сек
Count of elements : 78
Размер потока : 2,76 Кбайт (0%)
Заголовок : Forced
Язык : Russian
Default : Да
Forced : Нет

Текст #2
Идентификатор : 5
Формат : UTF-8
Идентификатор кодека : S_TEXT/UTF8
Идентификатор кодека/Информация : UTF-8 Plain Text
Продолжительность : 1 ч. 43 м.
Битрейт : 125 бит/сек
Count of elements : 2028
Размер потока : 95,8 Кбайт (0%)
Язык : Russian
Default : Нет
Forced : Нет

Текст #3
Идентификатор : 6
Формат : UTF-8
Идентификатор кодека : S_TEXT/UTF8
Идентификатор кодека/Информация : UTF-8 Plain Text
Продолжительность : 1 ч. 42 м.
Битрейт : 81 бит/сек
Count of elements : 1939
Размер потока : 61,0 Кбайт (0%)
Язык : English
Default : Нет
Forced : Нет

Текст #4
Идентификатор : 7
Формат : UTF-8
Идентификатор кодека : S_TEXT/UTF8
Идентификатор кодека/Информация : UTF-8 Plain Text
Продолжительность : 1 ч. 42 м.
Битрейт : 88 бит/сек
Count of elements : 2086
Размер потока : 66,4 Кбайт (0%)
Заголовок : SDH
Язык : English
Default : Нет
Forced : Нет

Меню
00:00:00.000 : en:Chapter 01
00:10:18.492 : en:Chapter 02
00:20:34.775 : en:Chapter 03
00:31:17.750 : en:Chapter 04
00:41:28.194 : en:Chapter 05
00:52:06.832 : en:Chapter 06
01:03:33.559 : en:Chapter 07
01:16:21.159 : en:Chapter 08
01:24:43.036 : en:Chapter 09
01:32:11.817 : en:Chapter 10
01:43:26.825 : en:Chapter 11
piratbit.cc



Скачать В активном поиске через торрент http://i72.fastpic.ru/big/2015/0531/46/68ef8a2783b58e5344cc30bbd3f1b046.png Скачать фильм В активном поиске через торрент бесплантно в хорошем качестве Описание:Устав от жизни со своим бойфрендом, Элис уходит от него, переезжает к старшей сестре Мэг, находит новую работу и обзаводится новой ... 8.1 10 18
Info! Золотая раздача, скачанное не засчитывается.
Торрент: Зарегистрирован [2016-05-16 16:38] · скачан: 983 раз
Статус: √ проверено
Размер: 2.13 GB
Как cкачать? Как скачать В активном поиске через торрент | qTorrent

% Раздел Тема Автор DL S | L
Фильмы [HD 720p, 1080p] (Хороший звук DUB, MVO) [ 7.4 GB ] В активном поиске / How to Be Single [2016 BDRip 720p [ Blu-Ray CEE] smaster Скачать
1 | 0
Фильмы [HD 720p, 1080p] (Хороший звук DUB, MVO) [ 11.69 GB ] В активном поиске / How to Be Single BDRip 1080p / Ворон Скачать
1 | 0
Фильмы 2016 [DVDrip, WEB-DLRip, HDrip] (DUB, MVO) [ 2.18 GB ] В активном поиске / How to Be Single BDRip от HQCLUB / Ворон Скачать
1 | 0
Фильмы [HD 720p, 1080p] (Хороший звук DUB, MVO) [ 11.49 GB ] В активном поиске / How to Be Single [2016 BDRip 1080p / ] $-DRON-$ Скачать
1 | 0
Фильмы 2016 [DVDrip, WEB-DLRip, HDrip] (DUB, MVO) [ 746 MB ] В активном поиске / How to Be Single [2016 HDRip] Dub Sherif Скачать
1 | 0
Фильмы 2016 [DVDrip, WEB-DLRip, HDrip] (DUB, MVO) [ 1.46 GB ] В активном поиске / How to Be Single [2016 BDRip-AVC от sokol_ok] Dub sokol_ok Скачать
1 | 0
Фильмы 2016 [DVDrip, WEB-DLRip, HDrip] (DUB, MVO) [ 1.41 GB ] В активном поиске / How to Be Single [2016 BDRip] ] Twi7ter Скачать
3 | 0


>> Регистрируемся здесь <<






Отзывы и комментарии о схеме читаем и пишем здесь: ---> Отзывы и комментарии о схеме

Новые благодарочки в телеграм довольных пользователей:
скриншот   скриншот   скриншот   скриншот   скриншот

17-05-2016 14:37 В активном поиске Скачать торрент  

Бредовая комедия)piratbit.cc



    Дорогой пользователь! Огромная просьба, поблагодарите релизера, оцените раздачу и оставьте свои комментарий, если Вы скачали В активном поиске через торрент бесплатно! Внесите свою лепту в развитие PiratBit!
    Комментировать посты могут только пользователи прошедшие не сложную регистрацию
    Показать сообщения:    

    В активном поиске через торрент
    Скачать бесплатно В активном поиске
    В активном поиске скачать торрент
    В активном поиске смотреть онлайн
    Cкачать фильм В активном поиске бесплатно
    В активном поиске скачать торрент в хорошем качестве
    В активном поиске смотреть онлайн бесплатно в хорошем качестве


    Вы не можете начинать темы
    Вы не можете отвечать на сообщения
    Вы не можете редактировать свои сообщения
    Вы не можете удалять свои сообщения
    Вы не можете голосовать в опросах
    Вы не можете прикреплять файлы к сообщениям
    Вы можете скачивать файлы