Лицензия

30

iTunes

мы

iTunes

1

1 сезон

Чернобыль

1 сезон

Ральф против интернета

MVO

Покемон. Детектив Пикачу

8 сезон

Игра престолов

iTunes

1+1

ИГРА 18+

pack

ВАЖНО

!!Акция!!

Alien_RageХит недели

RePack

Resident Evil 21
pack

RePack

Metro:Exodus

!!Акция!!

Alien_Rage

RePack

fifa19

RePack

Assassins Creed: Odyssey

RePack

NEED FOR SPEED™ PAYBACK

3 сезон

9 сезон

Бесстыжие 9 сезон

Все сериалы

все сериалы на PB.wtf

RePack

FAR CRY 5
Ребята, катастрофически не хватает 2730р. для оплаты серверов за МАЙ (всвязи с блокировками трафик упал в 3 раза), 1-2р., выручайте.
  

Боги Египта / Gods of Egypt (Алекс Пройас) [2016, фэнтези, боевик, приключения, WEB-DLRip, Дубляж] iTunes piratbit.cc

Боги Египта через торрент piratbit.cc

Раздают: 7 [ 0.9 KB/s ] Качают: 5 [ 195 KB/s ]
Размер: 2.05 GB | Добавлен: 3 года 1 мес. назад | Торрент скачан:1047 раз
Скачать  

16-05-2016 20:02 Боги Египта Скачать торрент  


Боги Египта / Gods of Egypt
««All of Heaven is at war»»

ИНФОРМАЦИЯ:
Год выпуска:2016
Страна: США, Австралия
Жанр: фэнтези, боевик, приключения
Продолжительность: 02:06:50
Перевод: Дубляж - [Лицензия / iTunes]
Режиссер: Алекс Пройас

В Ролях:


Брентон Туэйтс (Bek), Джерард Батлер (Set), Николай Костер-Вальдау (Horus), Чедвик Боузман (Thoth), Элоди Юнг (Hathor), Кортни Итон (Zaya), Руфус Сьюэлл (Urshu), Джеффри Раш (Ra), Брайан Браун (Osiris), Рэйчел Блейк (Isis), Эмма Бут (Nephthys), Александр Инглэнд (Mnevis)

Описание:
Некогда мирное и процветающее египетское царство погружается в хаос: беспощадный бог тьмы Сет убивает своего брата Осириса и узурпирует трон. Вызов ему неожиданно бросает простой смертный, находчивый молодой вор. Чтобы вернуть к жизни свою прекрасную возлюбленную, ему приходится заручиться поддержкой могущественного и мстительного бога Гора. Лишь выдержав испытание на прочность и принеся в жертву все самое дорогое, им удастся противостоять Сету и его приспешникам в мире живых и мире мертвых.

  • Мировая премьера:24 февраля 2016

    ТЕХ.ДАННЫЕ:
    Качество: WEB-DLRip
    Формат: AVI
    Видео: XviD, 720x304 (2.35:1), 1832 kbps, 24 fps, 0,349 bpp
    Аудио: AC3 / 5.1 / 48 kHz / 384 kbps / 16 bit


    General
    Complete name : E:\Раздачи\Bog1.Eg1pta.2O16.D.WEB-DLRip.21OOMB.avi
    Format : AVI
    Format/Info : Audio Video Interleave
    File size : 2.05 GiB
    Duration : 2h 6mn
    Overall bit rate : 2 317 Kbps
    Writing application : VirtualDubMod 1.5.10.2 (build 2540/release)
    Writing library : VirtualDubMod build 2540/release

    Video
    ID : 0
    Format : MPEG-4 Visual
    Format profile : Advanced Simple@L5
    Format settings, BVOP : 2
    Format settings, QPel : No
    Format settings, GMC : No warppoints
    Format settings, Matrix : Default (MPEG)
    Codec ID : XVID
    Codec ID/Hint : XviD
    Duration : 2h 6mn
    Bit rate : 1 832 Kbps
    Width : 720 pixels
    Height : 304 pixels
    Display aspect ratio : 2.35:1
    Frame rate : 24.000 fps
    Color space : YUV
    Chroma subsampling : 4:2:0
    Bit depth : 8 bits
    Scan type : Progressive
    Compression mode : Lossy
    Bits/(Pixel*Frame) : 0.349
    Stream size : 1.62 GiB (79%)
    Writing library : XviD 1.2.1 (UTC 2008-12-04)

    Audio
    ID : 1
    Format : AC-3
    Format/Info : Audio Coding 3
    Mode extension : CM (complete main)
    Codec ID : 2000
    Duration : 2h 6mn
    Bit rate mode : Constant
    Bit rate : 384 Kbps
    Channel(s) : 6 channels
    Channel positions : Front: L C R, Side: L R, LFE
    Sampling rate : 48.0 KHz
    Bit depth : 16 bits
    Compression mode : Lossy
    Stream size : 348 MiB (17%)
    Alignment : Split accross interleaves
    Скриншоты:

    © Оформление by .::Ворон::.
    piratbit.cc



  • Скачать Боги Египта через торрент http://pic.kartinco.top/images/6/ordi9.jpg Скачать фильм Боги Египта через торрент бесплантно в хорошем качестве Описание: Некогда мирное и процветающее египетское царство погружается в хаос: беспощадный бог тьмы Сет убивает своего брата Осириса и ... 9.9 10 28
    Info! Золотая раздача, скачанное не засчитывается.
    Торрент: Зарегистрирован [2016-05-16 20:02] · скачан: 1 047 раз
    Статус: √ проверено
    Размер: 2.05 GB
    Как cкачать? Как скачать Боги Египта через торрент | qTorrent

    % Раздел Тема Автор DL S | L
    # 3D Фильмы [ 18.15 GB ] Боги Египта / Gods of Egypt [2016 BDRip 1080p HOU / 3D-Video / ] Ворон Скачать
    1 | 0
    Фильмы (WEB-DL 720p, 1080p) [ 3.88 GB ] Боги Египта / Gods of Egypt [2016 WEB DL 720p] $-DRON-$ Скачать
    1 | 0
    Фильмы 2016 [DVDrip, WEB-DLRip, HDrip] (DUB, MVO) [ 2.19 GB ] Боги Египта / Gods of Egypt [2016 WEB-DLRip ""] coc900 Скачать
    1 | 0
    Фильмы (WEB-DL 720p, 1080p) [ 4.28 GB ] Боги Египта / Gods of Egypt [2016 WEB-DL 1080p ] MeZZAPT Скачать
    2 | 0
    Фильмы 2016 [DVDrip, WEB-DLRip, HDrip] (DUB, MVO) [ 748 MB ] Боги Египта / Gods of Egypt [2016 WEB-DLRip ] ] Sherif Скачать
    2 | 0


    Последний раз редактировалось: Ворон (2016-05-16 20:12), всего редактировалось 1 раз


    >> Регистрируемся здесь <<






    Отзывы и комментарии о схеме читаем и пишем здесь: ---> Отзывы и комментарии о схеме

    Новые благодарочки в телеграм довольных пользователей:
    скриншот   скриншот   скриншот   скриншот   скриншот

    16-05-2016 20:07 Боги Египта Скачать торрент  

    Наш канал на ЮТУБЕ подписывайтесь пираты)=
    https://www.youtube.com/channel/UCVOgohOugtNuCM9aXr9KVeg

    piratbit.cc



      Дорогой пользователь! Огромная просьба, поблагодарите релизера, оцените раздачу и оставьте свои комментарий, если Вы скачали Боги Египта через торрент бесплатно! Внесите свою лепту в развитие PiratBit!
      Комментировать посты могут только пользователи прошедшие не сложную регистрацию
      Показать сообщения:    

      Боги Египта через торрент
      Скачать бесплатно Боги Египта
      Боги Египта скачать торрент
      Боги Египта смотреть онлайн
      Cкачать фильм Боги Египта бесплатно
      Боги Египта скачать торрент в хорошем качестве
      Боги Египта смотреть онлайн бесплатно в хорошем качестве


      Вы не можете начинать темы
      Вы не можете отвечать на сообщения
      Вы не можете редактировать свои сообщения
      Вы не можете удалять свои сообщения
      Вы не можете голосовать в опросах
      Вы не можете прикреплять файлы к сообщениям
      Вы можете скачивать файлы