iTunes

1+1

iTunes

мы

iTunes

1

iTunes

Чернобыль

iTunes

Ральф против интернета

Лицензия

ПШазам

Лицензия

Игра престолов

Лицензия

30
pack

ВАЖНО

!!Акция!!

Alien_RageХит недели

RePack

Resident Evil 21

ИГРА 18+

pack

RePack

Metro:Exodus

!!Акция!!

Alien_Rage

RePack

fifa19

RePack

Assassins Creed: Odyssey

RePack

NEED FOR SPEED™ PAYBACK

3 сезон

9 сезон

Бесстыжие 9 сезон

Все сериалы

все сериалы на PB.wtf

RePack

FAR CRY 5
Ребята, катастрофически не хватает 7730р. для оплаты серверов за АВГУСТ (всвязи с блокировками трафик упал в 3 раза), 1-2р., выручайте.
  

Боги Египта / Gods of Egypt (Алекс Пройас) [2016 г., фэнтези, боевик, приключения, WEB-DLRip, Дубляж] iTunes] piratbit.cc

Боги Египта через торрент piratbit.cc

Размер: 748 MB | Добавлен: 3 года 4 мес. назад | Торрент скачан:469 раз
Скачать  

17-05-2016 06:16 Боги Египта Скачать торрент  

Боги Египта / Gods of Egypt
Год выпуска: 2016
Страна: США, Австралия / Mystery Clock Cinema, Pyramania, Summit Entertainment, Thunder Road
Жанр: фэнтези, боевик, приключения
Продолжительность: 02:06:50
Перевод: Дубляж - [Лицензия / iTunes]
Субтитры: Отсутствуют

Режиссер: Алекс Пройас

В ролях: Джерард Батлер, Николай Костер-Вальдау, Эбби Ли, Брентон Туэйтс, Кортни Итон, Руфус Сьюэлл, Джеффри Раш, Элоди Юнг, Чедвик Боузман, Брюс Спенс

Описание: Некогда мирное и процветающее египетское царство погружается в хаос: беспощадный бог тьмы Сет убивает своего брата Осириса и узурпирует трон. Вызов ему неожиданно бросает простой смертный, находчивый молодой вор. Чтобы вернуть к жизни свою прекрасную возлюбленную, ему приходится заручиться поддержкой могущественного и мстительного бога Гора. Лишь выдержав испытание на прочность и принеся в жертву все самое дорогое, им удастся противостоять Сету и его приспешникам в мире живых и мире мертвых.



Качество: WEB-DLRip
Формат: AVI
Видео кодек: XviD
Аудио кодек: MP3
Видео: XviD, 656x272, 24 fps, 690 kbps
Аудио: MP3, 2 ch, 128 kbps, 48 kHz
Общее
Полное имя : D:\Gods.of.Egypt.2016.WEB-DLRip.745MB.MegaPeer.avi
Формат : AVI
Формат/Информация : Audio Video Interleave
Размер файла : 748 Мбайт
Продолжительность : 2 ч. 6 м.
Общий поток : 824 Кбит/сек

Видео
Идентификатор : 0
Формат : MPEG-4 Visual
Профиль формата : Advanced Simple@L5
Параметр BVOP формата : 1
Параметр QPel формата : Нет
Параметр GMC формата : Без точки перехода
Параметр матрицы формата : Выборочная
Идентификатор кодека : XVID
Идентификатор кодека/Подсказка : XviD
Продолжительность : 2 ч. 6 м.
Битрейт : 690 Кбит/сек
Ширина : 656 пикселей
Высота : 272 пикселя
Соотношение сторон : 2,40:1
Частота кадров : 24,000 кадра/сек
Цветовое пространство : YUV
Субдискретизация насыщенности : 4:2:0
Битовая глубина : 8 бит
Тип развёртки : Прогрессивная
Метод сжатия : С потерями
Бит/(Пиксели*Кадры) : 0.161
Размер потока : 626 Мбайт (84%)
Библиотека кодирования : XviD 73

Аудио
Идентификатор : 1
Формат : MPEG Audio
Версия формата : Version 1
Профиль формата : Layer 3
Режим : Joint stereo
Расширение режима : MS Stereo
Идентификатор кодека : 55
Идентификатор кодека/Подсказка : MP3
Продолжительность : 2 ч. 6 м.
Вид битрейта : Постоянный
Битрейт : 128 Кбит/сек
Каналы : 2 канала
Частота : 48,0 КГц
Метод сжатия : С потерями
Размер потока : 116 Мбайт (16%)
Выравнивание : Соединение по промежуткам
Продолжительность промежутка : 167 мс. (4,00 видеокадра)
Время предзагрузки промежутка : 216 мс.
Заголовок : iTunes
Библиотека кодирования : LAME3.99r
Настройки программы : -m j -V 4 -q 2 -lowpass 17 -b 128
скриншот   скриншот   скриншот   скриншот   скриншот   скриншот  
piratbit.cc



Скачать Боги Египта через торрент http://pic1.kartinco.top/images/10/q6wpz.jpg Скачать фильм Боги Египта через торрент бесплантно в хорошем качестве Описание: Некогда мирное и процветающее египетское царство погружается в хаос: беспощадный бог тьмы Сет убивает своего брата Осириса и ... 9.8 10 13
Info! Золотая раздача, скачанное не засчитывается.
Торрент: Зарегистрирован [2016-05-17 06:16] · скачан: 469 раз
Статус: √ проверено
Размер: 748 MB
Как cкачать? Как скачать Боги Египта через торрент | qTorrent

% Раздел Тема Автор DL S | L
Ultra HD (UHD: 2K, 4K, 8K) — видео сверхвысокой чёткости [ 56.39 GB ] Боги Египта / Gods of Egypt [2016 UHD BDRemux 2160p] DUB [] + AVO [А. Матвеев] sheker187 Скачать
1 | 0
Ultra HD (UHD: 2K, 4K, 8K) — видео сверхвысокой чёткости [ 27.66 GB ] Боги Египта / Gods of Egypt [2016 UHD WEBRip 2160p] - [] sheker187 Скачать
1 | 0
Фильмы 2016 [DVDrip, WEB-DLRip, HDrip] (DUB, MVO) [ 2.91 GB ] Боги Египта / Gods of Egypt [2016 BDRip-AVC от sokol_ok] DUB sokol_ok Скачать
1 | 0
Фильмы 2016 [DVDrip, WEB-DLRip, HDrip] (DUB, MVO) [ 1.46 GB ] Боги Египта / Gods of Egypt [2016 BDRip] DUB Twi7ter Скачать
1 | 0
Фильмы (DVD фильмы) [ 6.74 GB ] Боги Египта / Gods of Egypt [2016 DVD9] R5 voovaz Скачать
1 | 0
Фильмы 2016 [DVDrip, WEB-DLRip, HDrip] (DUB, MVO) [ 1.46 GB ] Боги Египта / Gods of Egypt [2016 BDRip-AVC от sokol_ok] DUB sokol_ok Скачать
3 | 0
R.G. Resident & PiratVoice - Фильмы, Видео [ 2.17 GB ] Боги Египта / Gods of Egypt [2016 BDRip-AVC] DUB R.G.Resident White Smoke Скачать
2 | 0


>> Регистрируемся здесь <<






Отзывы и комментарии о схеме читаем и пишем здесь: ---> Отзывы и комментарии о схеме

Новые благодарочки в телеграм довольных пользователей:
скриншот   скриншот   скриншот   скриншот   скриншот
    Дорогой пользователь! Огромная просьба, поблагодарите релизера, оцените раздачу и оставьте свои комментарий, если Вы скачали Боги Египта через торрент бесплатно! Внесите свою лепту в развитие PiratBit!
    Комментировать посты могут только пользователи прошедшие не сложную регистрацию
    Показать сообщения:    

    Боги Египта через торрент
    Скачать бесплатно Боги Египта
    Боги Египта скачать торрент
    Боги Египта смотреть онлайн
    Cкачать фильм Боги Египта бесплатно
    Боги Египта скачать торрент в хорошем качестве
    Боги Египта смотреть онлайн бесплатно в хорошем качестве


    Вы не можете начинать темы
    Вы не можете отвечать на сообщения
    Вы не можете редактировать свои сообщения
    Вы не можете удалять свои сообщения
    Вы не можете голосовать в опросах
    Вы не можете прикреплять файлы к сообщениям
    Вы можете скачивать файлы