Лицензия

30

iTunes

мы

iTunes

1

1 сезон

Чернобыль

1 сезон

Ральф против интернета

MVO

Покемон. Детектив Пикачу

8 сезон

Игра престолов

iTunes

1+1

ИГРА 18+

pack

ВАЖНО

!!Акция!!

Alien_RageХит недели

RePack

Resident Evil 21
pack

RePack

Metro:Exodus

!!Акция!!

Alien_Rage

RePack

fifa19

RePack

Assassins Creed: Odyssey

RePack

NEED FOR SPEED™ PAYBACK

3 сезон

9 сезон

Бесстыжие 9 сезон

Все сериалы

все сериалы на PB.wtf

RePack

FAR CRY 5
Ребята, катастрофически не хватает 2730р. для оплаты серверов за МАЙ (всвязи с блокировками трафик упал в 3 раза), 1-2р., выручайте.
  

Дедушка легкого поведения / Dirty Grandpa (Дэн Мазер / Dan Mazer) [2016, комедия, BDRip-AVC от potroks] [Unrated Cut] Dub [iTunes] piratbit.cc

Дедушка легкого поведения через торрент piratbit.cc

Размер: 1.41 GB | Добавлен: 3 года 1 мес. назад | Торрент скачан:169 раз
Скачать  

17-05-2016 06:39 Дедушка легкого поведения Скачать торрент  

Дедушка легкого поведения / Dirty Grandpa
«This is Jason. He's a little worried about his grandpa»
Год выпуска: 2016
Страна: США / Lionsgate...
Жанр: комедия
Продолжительность: 01:49:34
Перевод: Дубляж [iTunes]
Субтитры: русские (форс) на непереведённые сцены
Навигация по главам: есть
Режиссер: Дэн Мазер / Dan Mazer
В ролях:

Роберт Де Ниро (Dick Kelly), Зак Эфрон (Jason Kelly), Зои Дойч (Shadia), Обри Плаза (Lenore), Джейсон Манцукас (Tan Pam), Дермот Малруни (David Kelly), Джулианна Хаф (Meredith), Джеффри Бауэр-Чепман (Bradley), Брэндон Майкал Смит (Tyrone), Джейк Пикинг (Cody), Майкл Хадсон (Brah), Адам Палли (Cousin Nick)
Описание: Джейсон, покладистый правильный парень, накануне свадьбы вляпывается в увеселительную поездку к морю со своим дедом, отставным генералом с легким нравом, бурной фантазией и вполне определенными потребностями... И, похоже, дедские каникулы изменят жизнь Джейсона навсегда!

Качество: BDRip-AVC
Формат: MKV
Видео кодек: AVC
Аудио кодек: AC3
Видео: 936x390 (2.40:1), 1460 kbps, 23,976 fps, 0,167 bit/pixel
Аудио: русский / AC3 / 5.1 / 48 kHz / 384 kbps / 16 bit
UNRATED - расширенная версия, длиннее российской прокатной на ~8 минут. Не хватает около 7 минут перевода. Эти места переведены субтитрами

Код:

General
Unique ID                   : 238678350121424366548473990087611492715 (0xB38FC73555C9D0998E43C6EB99F3A96B)
Complete name               : Dedushka.Legkogo.Povedeniya.UC.2016.RUS.BDRip.x264.-HELLYWOOD.mkv
Format                      : Matroska
Format version              : Version 4 / Version 2
File size                   : 1.41 GiB
Duration                    : 1h 49mn
Overall bit rate            : 1 845 Kbps
Movie name                  : Dirty Grandpa (2016)
Encoded date                : UTC 2016-05-07 16:47:02
Writing application         : mkvmerge v5.9.0 ('On The Loose') built on Dec 15 2012 16:39:58
Writing library             : libebml v1.3.0 + libmatroska v1.4.0

Video
ID                          : 1
Format                      : AVC
Format/Info                 : Advanced Video Codec
Format profile              : High@L4.1
Format settings, CABAC      : Yes
Format settings, ReFrames   : 12 frames
Codec ID                    : V_MPEG4/ISO/AVC
Duration                    : 1h 49mn
Bit rate                    : 1 460 Kbps
Width                       : 936 pixels
Height                      : 390 pixels
Display aspect ratio        : 2.40:1
Frame rate mode             : Constant
Frame rate                  : 23.976 (24000/1001) fps
Color space                 : YUV
Chroma subsampling          : 4:2:0
Bit depth                   : 8 bits
Scan type                   : Progressive
Bits/(Pixel*Frame)          : 0.167
Stream size                 : 1.09 GiB (77%)
Title                       : potroks
Writing library             : x264 core 148 r2665M a01e339
Encoding settings           : cabac=1 / ref=12 / deblock=1:-2:-2 / analyse=0x3:0x133 / me=umh / subme=11 / psy=1 / psy_rd=1.04:0.10 / mixed_ref=1 / me_range=48 / chroma_me=1 / trellis=2 / 8x8dct=1 / cqm=0 / deadzone=21,11 / fast_pskip=0 / chroma_qp_offset=-3 / threads=9 / lookahead_threads=2 / sliced_threads=0 / nr=0 / decimate=1 / interlaced=0 / bluray_compat=0 / constrained_intra=0 / bframes=13 / b_pyramid=2 / b_adapt=2 / b_bias=0 / direct=3 / weightb=1 / open_gop=0 / weightp=2 / keyint=240 / keyint_min=23 / scenecut=40 / intra_refresh=0 / rc=2pass / mbtree=0 / bitrate=1460 / ratetol=1.0 / qcomp=0.70 / qpmin=0 / qpmax=69 / qpstep=4 / cplxblur=20.0 / qblur=0.5 / ip_ratio=1.35 / pb_ratio=1.25 / aq=1:0.80
Language                    : English
Default                     : Yes
Forced                      : No

Audio
ID                          : 2
Format                      : AC-3
Format/Info                 : Audio Coding 3
Mode extension              : CM (complete main)
Format settings, Endianness : Big
Codec ID                    : A_AC3
Duration                    : 1h 49mn
Bit rate mode               : Constant
Bit rate                    : 384 Kbps
Channel(s)                  : 6 channels
Channel positions           : Front: L C R, Side: L R, LFE
Sampling rate               : 48.0 KHz
Frame rate                  : 31.250 fps (1536 spf)
Compression mode            : Lossy
Stream size                 : 301 MiB (21%)
Title                       : Dub | DD 5.1 @ 384 kbps - iTunes
Language                    : Russian
Default                     : Yes
Forced                      : No

Text
ID                          : 3
Format                      : UTF-8
Codec ID                    : S_TEXT/UTF8
Codec ID/Info               : UTF-8 Plain Text
Title                       : Forced
Language                    : Russian
Default                     : Yes
Forced                      : No

Menu
00:00:00.000                : en:00:00:00.000
00:06:38.148                : en:00:06:38.148
00:11:28.730                : en:00:11:28.730
00:17:15.743                : en:00:17:15.743
00:25:03.585                : en:00:25:03.585
00:31:17.209                : en:00:31:17.209
00:37:24.450                : en:00:37:24.450
00:48:56.600                : en:00:48:56.600
00:52:35.360                : en:00:52:35.360
00:58:19.287                : en:00:58:19.287
01:03:28.554                : en:01:03:28.554
01:06:47.712                : en:01:06:47.712
01:14:30.049                : en:01:14:30.049
01:21:14.077                : en:01:21:14.077
01:28:26.843                : en:01:28:26.843
01:38:16.182                : en:01:38:16.182

piratbit.cc



Скачать Дедушка легкого поведения через торрент http://i80.fastpic.ru/big/2016/0517/40/1f6c42cad47b5df86ed0dbcfe862a640.png Скачать фильм Дедушка легкого поведения через торрент бесплантно в хорошем качестве Описание: Джейсон, покладистый правильный парень, накануне свадьбы вляпывается в увеселительную поездку к морю со своим дедом, отставным ... 10 10 5
Info! Золотая раздача, скачанное не засчитывается.
Торрент: Зарегистрирован [2016-05-17 06:39] · скачан: 169 раз
Статус: √ проверено
Размер: 1.41 GB
Как cкачать? Как скачать Дедушка легкого поведения через торрент | qTorrent

% Раздел Тема Автор DL S | L
Ultra HD (UHD: 2K, 4K, 8K) — видео сверхвысокой чёткости [ 51.88 GB ] Дедушка легкого поведения / Dirty Grandpa [2015 UHD BDRemux 2160p] DUB [Dolby Vision TV] sheker187 Скачать
1 | 0
Ultra HD (UHD: 2K, 4K, 8K) — видео сверхвысокой чёткости [ 57.84 GB ] Дедушка легкого поведения / Dirty Grandpa [2016 UHD BDRemux 2160p] [Театральная версия] [HDR: Dolby Vision + HDR10] bober100 Скачать
1 | 0
Ultra HD (UHD: 2K, 4K, 8K) — видео сверхвысокой чёткости [ 50.07 GB ] Дедушка легкого поведения / Dirty Grandpa [2016 UHD BDRemux 2160p] [Театральная версия] bober100 Скачать
1 | 0
Фильмы [HD 720p, 1080p] (Хороший звук DUB, MVO) [ 6.67 GB ] Дедушка легкого поведения / Dirty Grandpa [2016 BDRip 720p] [Unrated Cut] Dub potroks Скачать
1 | 0
Фильмы 2016 [DVDrip, WEB-DLRip, HDrip] (DUB, MVO) [ 1.46 GB ] Дедушка легкого поведения / Dirty Grandpa [2016 BDRip-AVC от sokol_ok] [Расширенная версия] Dub sokol_ok Скачать
3 | 0
Фильмы (Blu-ray, BD-Remux, HDDVD) [ 29.65 GB ] Дедушка легкого поведения / Dirty Grandpa [2016 BDRemux 1080p] от ExKinoRay / Расширенная версия / Russian Mafia Скачать
1 | 0
Фильмы 2016 [DVDrip, WEB-DLRip, HDrip] (DUB, MVO) [ 2.13 GB ] Дедушка легкого поведения / Dirty Grandpa [2016 BDRip-AVC] [Unrated Cut] Dub potroks Скачать
1 | 0


>> Регистрируемся здесь <<






Отзывы и комментарии о схеме читаем и пишем здесь: ---> Отзывы и комментарии о схеме

Новые благодарочки в телеграм довольных пользователей:
скриншот   скриншот   скриншот   скриншот   скриншот
    Дорогой пользователь! Огромная просьба, поблагодарите релизера, оцените раздачу и оставьте свои комментарий, если Вы скачали Дедушка легкого поведения через торрент бесплатно! Внесите свою лепту в развитие PiratBit!
    Комментировать посты могут только пользователи прошедшие не сложную регистрацию
    Показать сообщения:    

    Дедушка легкого поведения через торрент
    Скачать бесплатно Дедушка легкого поведения
    Дедушка легкого поведения скачать торрент
    Дедушка легкого поведения смотреть онлайн
    Cкачать фильм Дедушка легкого поведения бесплатно
    Дедушка легкого поведения скачать торрент в хорошем качестве
    Дедушка легкого поведения смотреть онлайн бесплатно в хорошем качестве


    Вы не можете начинать темы
    Вы не можете отвечать на сообщения
    Вы не можете редактировать свои сообщения
    Вы не можете удалять свои сообщения
    Вы не можете голосовать в опросах
    Вы не можете прикреплять файлы к сообщениям
    Вы можете скачивать файлы