Лицензия

30

iTunes

мы

iTunes

1

1 сезон

Чернобыль

1 сезон

Ральф против интернета

MVO

Покемон. Детектив Пикачу

8 сезон

Игра престолов

iTunes

1+1

ИГРА 18+

pack

ВАЖНО

!!Акция!!

Alien_RageХит недели

RePack

Resident Evil 21
pack

RePack

Metro:Exodus

!!Акция!!

Alien_Rage

RePack

fifa19

RePack

Assassins Creed: Odyssey

RePack

NEED FOR SPEED™ PAYBACK

3 сезон

9 сезон

Бесстыжие 9 сезон

Все сериалы

все сериалы на PB.wtf

RePack

FAR CRY 5
Ребята, катастрофически не хватает 2730р. для оплаты серверов за МАЙ (всвязи с блокировками трафик упал в 3 раза), 1-2р., выручайте.
  

Команда уничтожить / Kill Command (Стивен Гомез) [2016 г., Ужасы, фантастика, боевик, WEB-DLRip] MVO [Parovoz Production] (Без рекламы) piratbit.cc

Команда уничтожить через торрент piratbit.cc

Размер: 1.45 GB | Добавлен: 3 года 1 мес. назад | Торрент скачан:786 раз
Скачать  

17-05-2016 21:35 Команда уничтожить Скачать торрент  

Команда уничтожить / Kill Command«Подчинись роботам!»

Год выпуска » 2016
Страна » Великобритания
Жанр » Ужасы, фантастика, боевик
Продолжительность » 01:39:37
Перевод » Любительский (многоголосный) [Parovoz Production]
Субтитры » Отсутствуют

В ролях
» Ванесса Кирби, Туре Линдхардт, Дэвид Аджала, Майк Ноубл, Том МакКэй, Бентли Калу, Оси Окерафор, Дебора Росан, Келли Гоф, Тим Ахерн


Режиссёр
» Стивен Гомез

» Недалекое будущее. Экспериментальный отряд специальных агентов высаживается на необитаемом острове для прохождения интенсивных боевых учений. Но на острове высадился кто-то еще. И это - не люди...
• Качество » WEB-DLRip
• Формат » avi
• Видео кодек » XviD
• Аудио кодек » AC3
• Видео » 720x304, 24.000 fps, 1692 Кбит/с
• Аудио » Русский (AC-3 / 2 ch / 192 kbps / 48,0 КГц / 16 bit )
• Аудио » Английский (AC-3 / 2 ch / 192 kbps / 48,0 КГц / 16 bit)



Дата мировой премьеры: 13 мая 2016
Общее
Полное имя : D:\Kill.Command.2016.L.WEB-DLRip.avi
Формат : AVI
Формат/Информация : Audio Video Interleave
Размер файла : 1,45 Гбайт
Продолжительность : 1 ч. 39 м.
Общий поток : 2090 Кбит/сек
Программа кодирования : VirtualDubMod 1.5.10.3 | www.virtualdub-fr.org || (build 2550/release)
Библиотека кодирования : VirtualDubMod build 2550/release

Видео
Идентификатор : 0
Формат : MPEG-4 Visual
Профиль формата : Advanced Simple@L5
Параметр BVOP формата : 1
Параметр QPel формата : Нет
Параметр GMC формата : Без точки перехода
Параметр матрицы формата : Выборочная
Идентификатор кодека : XVID
Идентификатор кодека/Подсказка : XviD
Продолжительность : 1 ч. 39 м.
Битрейт : 1692 Кбит/сек
Ширина : 720 пикселей
Высота : 304 пикселя
Соотношение сторон : 2,35:1
Частота кадров : 24,000 кадра/сек
Цветовое пространство : YUV
Субдискретизация насыщенности : 4:2:0
Битовая глубина : 8 бит
Тип развёртки : Прогрессивная
Метод сжатия : С потерями
Бит/(Пиксели*Кадры) : 0.322
Размер потока : 1,18 Гбайт (81%)
Библиотека кодирования : XviD 73

Аудио #1
Идентификатор : 1
Формат : AC-3
Формат/Информация : Audio Coding 3
Расширение режима : CM (complete main)
Параметр Endianness формата : Big
Идентификатор кодека : 2000
Продолжительность : 1 ч. 39 м.
Вид битрейта : Постоянный
Битрейт : 192 Кбит/сек
Каналы : 2 канала
Расположение каналов : Front: L R
Частота : 48,0 КГц
Битовая глубина : 16 бит
Метод сжатия : С потерями
Размер потока : 137 Мбайт (9%)
Выравнивание : Разделение по промежуткам
Продолжительность промежутка : 42 мс. (1,00 видеокадр)
Время предзагрузки промежутка : 500 мс.

Аудио #2
Идентификатор : 2
Формат : AC-3
Формат/Информация : Audio Coding 3
Расширение режима : CM (complete main)
Параметр Endianness формата : Big
Идентификатор кодека : 2000
Продолжительность : 1 ч. 39 м.
Вид битрейта : Постоянный
Битрейт : 192 Кбит/сек
Каналы : 2 канала
Расположение каналов : Front: L R
Частота : 48,0 КГц
Битовая глубина : 16 бит
Метод сжатия : С потерями
Размер потока : 137 Мбайт (9%)
Выравнивание : Разделение по промежуткам
Продолжительность промежутка : 42 мс. (1,00 видеокадр)
Время предзагрузки промежутка : 500 мс.
[/code]
скриншот   скриншот   скриншот  
piratbit.cc



Скачать Команда уничтожить через торрент http://i74.fastpic.ru/big/2015/1218/b5/c39d072d168dbcde95d1a17f670689b5.gif Скачать фильм Команда уничтожить через торрент бесплантно в хорошем качестве В ролях » Ванесса Кирби, Туре Линдхардт, Дэвид Аджала, Майк Ноубл, Том МакКэй, Бентли Калу, Оси Окерафор, Дебора Росан, Келли Гоф, Тим ... 10 10 30
Торрент: Зарегистрирован [2016-05-17 21:35] · скачан: 786 раз
Статус: T временная
Размер: 1.45 GB
Как cкачать? Как скачать Команда уничтожить через торрент | qTorrent

% Раздел Тема Автор DL S | L
T Фильмы 2016 [DVDrip, WEB-DLRip, HDrip] (DUB, MVO) [ 1.46 GB ] Команда уничтожить / Kill Command [2016 BDRip] [MVO] killermax2013 Скачать
1 | 0
T Релизы по Парсеру [Игры, Сериалы и Фильмы и другое...] [ 10.29 GB ] Команда уничтожить / Kill Command BDRip 1080p Ворон Скачать
1 | 0
T Фильмы [HD 720p, 1080p] (Хороший звук DUB, MVO) [ 4.93 GB ] Команда уничтожить / Kill Command [2016 BDRip 720p] MVO SergAS70 Скачать
1 | 0
T Фильмы 2016 [DVDrip, WEB-DLRip, HDrip] (DUB, MVO) [ 746 MB ] Команда уничтожить / Kill Command [2016 WEB-DLRip] MVO Sherif Скачать
1 | 0
T R.G. Resident & PiratVoice - Фильмы, Видео [ 1.46 GB ] Команда уничтожить / Kill Command [2016 BDRip-AVC Любительский двухголосый [Parovoz Production] R.G.Resident White Smoke Скачать
1 | 0
T Фильмы 2016 [DVDrip, WEB-DLRip, HDrip] (DUB, MVO) [ 1.46 GB ] Команда уничтожить / Kill Command [2016 BDRip] MVO [Parovoz Production] $-DRON-$ Скачать
1 | 0
T Фильмы (Blu-ray, BD-Remux, HDDVD) [ 16.27 GB ] Команда уничтожить / Kill Command [2016 BDRemux 1080p] от ExKinoRay / MVO Russian Mafia Скачать
1 | 0


>> Регистрируемся здесь <<






Отзывы и комментарии о схеме читаем и пишем здесь: ---> Отзывы и комментарии о схеме

Новые благодарочки в телеграм довольных пользователей:
скриншот   скриншот   скриншот   скриншот   скриншот

19-05-2016 16:40 Команда уничтожить Скачать торрент  

ФИЛЬМ по замыслу хороший но сняли трешовато ( как буд то тв3 или си фу посмотрел)piratbit.cc



    Дорогой пользователь! Огромная просьба, поблагодарите релизера, оцените раздачу и оставьте свои комментарий, если Вы скачали Команда уничтожить через торрент бесплатно! Внесите свою лепту в развитие PiratBit!
    Комментировать посты могут только пользователи прошедшие не сложную регистрацию
    Показать сообщения:    

    Команда уничтожить через торрент
    Скачать бесплатно Команда уничтожить
    Команда уничтожить скачать торрент
    Команда уничтожить смотреть онлайн
    Cкачать фильм Команда уничтожить бесплатно
    Команда уничтожить скачать торрент в хорошем качестве
    Команда уничтожить смотреть онлайн бесплатно в хорошем качестве


    Вы не можете начинать темы
    Вы не можете отвечать на сообщения
    Вы не можете редактировать свои сообщения
    Вы не можете удалять свои сообщения
    Вы не можете голосовать в опросах
    Вы не можете прикреплять файлы к сообщениям
    Вы можете скачивать файлы