Лицензия

30

iTunes

мы

iTunes

1

1 сезон

Чернобыль

1 сезон

Ральф против интернета

MVO

Покемон. Детектив Пикачу

8 сезон

Игра престолов

iTunes

1+1

ИГРА 18+

pack

ВАЖНО

!!Акция!!

Alien_RageХит недели

RePack

Resident Evil 21
pack

RePack

Metro:Exodus

!!Акция!!

Alien_Rage

RePack

fifa19

RePack

Assassins Creed: Odyssey

RePack

NEED FOR SPEED™ PAYBACK

3 сезон

9 сезон

Бесстыжие 9 сезон

Все сериалы

все сериалы на PB.wtf

RePack

FAR CRY 5
Ребята, катастрофически не хватает 2730р. для оплаты серверов за МАЙ (всвязи с блокировками трафик упал в 3 раза), 1-2р., выручайте.
  

Боги Египта / Gods of Egypt (Алекс Пройас) [2016 г., фэнтези, боевик, приключения, WEB-DLRip, Дубляж "iTunes"] piratbit.cc

Боги Египта через торрент piratbit.cc

Размер: 2.19 GB | Добавлен: 3 года 1 мес. назад | Торрент скачан:907 раз
Скачать  

18-05-2016 17:18 Боги Египта Скачать торрент  

Боги Египта / Gods of Egypt
Год выпуска: 2016
Страна: США, Австралия / Pyramania, Summit Entertainment, Mystery Clock Cinema
Жанр: фэнтези, боевик, приключения
Продолжительность: 02:06:50
Перевод: Дубляж (iTunes)

Режиссер: Алекс Пройас

IMDB 5.60 (18 005)


В ролях: Брентон Туэйтс, Джерард Батлер, Николай Костер-Вальдау, Чедвик Боузман, Элоди Юнг, Кортни Итон, Руфус Сьюэлл, Джеффри Раш, Брайан Браун, Рэйчел Блейк

Описание: Некогда мирное и процветающее египетское царство погружается в хаос: беспощадный бог тьмы Сет убивает своего брата Осириса и узурпирует трон. Вызов ему неожиданно бросает простой смертный, находчивый молодой вор. Чтобы вернуть к жизни свою прекрасную возлюбленную, ему приходится заручиться поддержкой могущественного и мстительного бога Гора. Лишь выдержав испытание на прочность и принеся в жертву все самое дорогое, им удастся противостоять Сету и его приспешникам в мире живых и мире мертвых.

Качество: WEB-DLRip
Формат: AVI
Видео кодек: XviD
Аудио кодек: AC3
Видео: MPEG4, XviD, 720x304 (2.35:1), 24.000 fps, 2 079 Kbps (0.396 bit/pixel)
Аудио: AC-3, 48.0 KHz, 6 ch, 384 Kbps, CBR


Общее
Полное имя : F:\кино\Боги Египта .2016.D.WEB-DLRip.avi
Формат : AVI
Формат/Информация : Audio Video Interleave
Профиль формата : OpenDML
Размер файла : 2,19 Гбайт
Продолжительность : 2 ч. 6 м.
Общий поток : 2474 Кбит/сек
Программа кодирования : VirtualDubMod 1.5.10.3 | www.virtualdub-fr.org || (build 2550/release)
Библиотека кодирования : VirtualDubMod build 2550/release

Видео
Идентификатор : 0
Формат : MPEG-4 Visual
Профиль формата : Advanced Simple@L5
Параметр BVOP формата : 2
Параметр QPel формата : Нет
Параметр GMC формата : Без точки перехода
Параметр матрицы формата : Default (H.263)
Идентификатор кодека : XVID
Идентификатор кодека/Подсказка : XviD
Продолжительность : 2 ч. 6 м.
Битрейт : 2079 Кбит/сек
Ширина : 720 пикселей
Высота : 304 пикселя
Соотношение сторон : 2,35:1
Частота кадров : 24,000 кадра/сек
Цветовое пространство : YUV
Субдискретизация насыщенности : 4:2:0
Битовая глубина : 8 бит
Тип развёртки : Прогрессивная
Метод сжатия : С потерями
Бит/(Пиксели*Кадры) : 0.396
Размер потока : 1,84 Гбайт (84%)
Библиотека кодирования : XviD 1.2.1 (UTC 2008-12-04)

Аудио
Идентификатор : 1
Формат : AC-3
Формат/Информация : Audio Coding 3
Расширение режима : CM (complete main)
Параметр Endianness формата : Big
Идентификатор кодека : 2000
Продолжительность : 2 ч. 6 м.
Вид битрейта : Постоянный
Битрейт : 384 Кбит/сек
Каналы : 6 каналов
Расположение каналов : Front: L C R, Side: L R, LFE
Частота : 48,0 КГц
Частота кадров : 31,250 кадров/сек (1536 spf)
Метод сжатия : С потерями
Размер потока : 348 Мбайт (16%)
Выравнивание : Разделение по промежуткам
Продолжительность промежутка : 42 мс. (1,00 видеокадр)
Время предзагрузки промежутка : 500 мс.

piratbit.cc



Скачать Боги Египта через торрент http://pic.kartinco.top/images/11/1keh1.jpg Скачать фильм Боги Египта через торрент бесплантно в хорошем качестве Описание: Некогда мирное и процветающее египетское царство погружается в хаос: беспощадный бог тьмы Сет убивает своего брата Осириса и ... 9.7 10 19
Info! Золотая раздача, скачанное не засчитывается.
Торрент: Зарегистрирован [2016-05-18 17:18] · скачан: 907 раз
Статус: √ проверено
Размер: 2.19 GB
Как cкачать? Как скачать Боги Египта через торрент | qTorrent

% Раздел Тема Автор DL S | L
Ultra HD (UHD: 2K, 4K, 8K) — видео сверхвысокой чёткости [ 56.39 GB ] Боги Египта / Gods of Egypt [2016 UHD BDRemux 2160p] DUB [] + AVO [А. Матвеев] sheker187 Скачать
1 | 0
Ultra HD (UHD: 2K, 4K, 8K) — видео сверхвысокой чёткости [ 27.66 GB ] Боги Египта / Gods of Egypt [2016 UHD WEBRip 2160p] - [] sheker187 Скачать
1 | 0
Фильмы 2016 [DVDrip, WEB-DLRip, HDrip] (DUB, MVO) [ 2.91 GB ] Боги Египта / Gods of Egypt [2016 BDRip-AVC от sokol_ok] DUB sokol_ok Скачать
1 | 0
Фильмы 2016 [DVDrip, WEB-DLRip, HDrip] (DUB, MVO) [ 1.46 GB ] Боги Египта / Gods of Egypt [2016 BDRip] DUB Twi7ter Скачать
1 | 0
Фильмы (DVD фильмы) [ 6.74 GB ] Боги Египта / Gods of Egypt [2016 DVD9] R5 voovaz Скачать
1 | 0
Фильмы 2016 [DVDrip, WEB-DLRip, HDrip] (DUB, MVO) [ 1.46 GB ] Боги Египта / Gods of Egypt [2016 BDRip-AVC от sokol_ok] DUB sokol_ok Скачать
1 | 0
R.G. Resident & PiratVoice - Фильмы, Видео [ 2.17 GB ] Боги Египта / Gods of Egypt [2016 BDRip-AVC] DUB R.G.Resident White Smoke Скачать
2 | 0


>> Регистрируемся здесь <<






Отзывы и комментарии о схеме читаем и пишем здесь: ---> Отзывы и комментарии о схеме

Новые благодарочки в телеграм довольных пользователей:
скриншот   скриншот   скриншот   скриншот   скриншот

18-05-2016 19:10 Боги Египта Скачать торрент  

Фильм хороший однозначно к просмотру piratbit.cc



18-05-2016 19:35 Боги Египта Скачать торрент  

Средненький боевичок, посмотреть, чтобы убить время. Актеры, видимо согласились сниматься, не от хорошей жизни. Поэтому стараются немногие.
Сюжетец тоже средненький.
Кажется, этот фильм опоздал лет на 10-15, раньше его приняли бы на ура.piratbit.cc



    Дорогой пользователь! Огромная просьба, поблагодарите релизера, оцените раздачу и оставьте свои комментарий, если Вы скачали Боги Египта через торрент бесплатно! Внесите свою лепту в развитие PiratBit!
    Комментировать посты могут только пользователи прошедшие не сложную регистрацию
    Показать сообщения:    

    Боги Египта через торрент
    Скачать бесплатно Боги Египта
    Боги Египта скачать торрент
    Боги Египта смотреть онлайн
    Cкачать фильм Боги Египта бесплатно
    Боги Египта скачать торрент в хорошем качестве
    Боги Египта смотреть онлайн бесплатно в хорошем качестве


    Вы не можете начинать темы
    Вы не можете отвечать на сообщения
    Вы не можете редактировать свои сообщения
    Вы не можете удалять свои сообщения
    Вы не можете голосовать в опросах
    Вы не можете прикреплять файлы к сообщениям
    Вы можете скачивать файлы