iTunes

1+1

iTunes

мы

iTunes

1

iTunes

Чернобыль

iTunes

Ральф против интернета

Лицензия

ПШазам

Лицензия

Игра престолов

Лицензия

30
pack

ВАЖНО

!!Акция!!

Alien_RageХит недели

RePack

Resident Evil 21

ИГРА 18+

pack

RePack

Metro:Exodus

!!Акция!!

Alien_Rage

RePack

fifa19

RePack

Assassins Creed: Odyssey

RePack

NEED FOR SPEED™ PAYBACK

3 сезон

9 сезон

Бесстыжие 9 сезон

Все сериалы

все сериалы на PB.wtf

RePack

FAR CRY 5
Ребята, катастрофически не хватает 7730р. для оплаты серверов за АВГУСТ (всвязи с блокировками трафик упал в 3 раза), 1-2р., выручайте.
  

Детсадовский полицейский 2 / Kindergarten Cop 2 (Дон Майкл Пол) [2016, комедия, HDRip, Дубляж] iTunes piratbit.cc

Детсадовский полицейский 2 через торрент piratbit.cc

Размер: 1.46 GB | Добавлен: 3 года 3 мес. назад | Торрент скачан:819 раз
Скачать  

19-05-2016 19:59 Детсадовский полицейский 2 Скачать торрент  


Детсадовский полицейский 2 / Kindergarten Cop 2


ИНФОРМАЦИЯ:
Год выпуска:2016
Страна: США
Жанр: комедия
Продолжительность: 01:40:06
Перевод: Дубляж - [Лицензия / iTunes]
Режиссер: Дон Майкл Пол

В Ролях:


Дольф Лундгрен (Agent Reed), Фиона Врум (Michelle), Сара Стрэйндж (Miss Sinclaire), Алекс Паунович (Zogu), Билл Беллами (Agent Sanders), Андре Трикоте (Valmir), Джоди Томпсон (Hot Mom), Рафаэль Алехандро (Cowboy), Дарла Тейлор (Olivia), Энид-Рэй Адамс (Jett's Mom), Ребекка Олсон (Katja), Джозиа Блэк (Jason Flaherty)

Описание:
Главный герой и его верный напарник должны найти съемный накопитель с секретными данными, касающимися федеральной программы защиты свидетелей, который, по случайному стечению обстоятельств, оказывается в руках прелестной воспитательницы детского сада. Но ситуацию усугубляет то, что за этой информацией параллельно охотятся албанские бандиты...

  • Мировая премьера:17 мая 2016

    ТЕХ.ДАННЫЕ:
    Качество: HDRip
    Формат: AVI
    Видео: XviD, 720x400 (16:9), 1610 kbps, 23,976 fps, 0,233 bpp
    Аудио: AC3 / 5.1 / 48 kHz / 384 kbps / 16 bit


    General
    Complete name : E:\Раздачи\Detsad.KoP.2.2O16.D.HDRip.14OOMB.avi
    Format : AVI
    Format/Info : Audio Video Interleave
    File size : 1.46 GiB
    Duration : 1h 40mn
    Overall bit rate : 2 086 Kbps
    Writing application : VirtualDubMod 1.5.10.2 (build 2540/release)
    Writing library : VirtualDubMod build 2540/release

    Video
    ID : 0
    Format : MPEG-4 Visual
    Format profile : Advanced Simple@L5
    Format settings, BVOP : 2
    Format settings, QPel : No
    Format settings, GMC : No warppoints
    Format settings, Matrix : Custom
    Codec ID : XVID
    Codec ID/Hint : XviD
    Duration : 1h 40mn
    Bit rate : 1 611 Kbps
    Width : 720 pixels
    Height : 400 pixels
    Display aspect ratio : 16:9
    Frame rate : 23.976 fps
    Color space : YUV
    Chroma subsampling : 4:2:0
    Bit depth : 8 bits
    Scan type : Progressive
    Compression mode : Lossy
    Bits/(Pixel*Frame) : 0.233
    Stream size : 1.13 GiB (77%)
    Writing library : XviD 1.2.1 (UTC 2008-12-04)

    Audio
    ID : 1
    Format : AC-3
    Format/Info : Audio Coding 3
    Mode extension : CM (complete main)
    Codec ID : 2000
    Duration : 1h 40mn
    Bit rate mode : Constant
    Bit rate : 384 Kbps
    Channel(s) : 6 channels
    Channel positions : Front: L C R, Side: L R, LFE
    Sampling rate : 48.0 KHz
    Bit depth : 16 bits
    Compression mode : Lossy
    Stream size : 275 MiB (18%)
    Alignment : Split accross interleaves
    Скриншоты:

    © Оформление by .::Ворон::.
    piratbit.cc



  • Скачать Детсадовский полицейский 2 через торрент http://pic.kartinco.top/images/6/ordi9.jpg Скачать фильм Детсадовский полицейский 2 через торрент бесплантно в хорошем качестве Описание: Главный герой и его верный напарник должны найти съемный накопитель с секретными данными, касающимися федеральной программы ... 10 10 30
    Info! Золотая раздача, скачанное не засчитывается.
    Торрент: Зарегистрирован [2016-05-19 19:59] · скачан: 819 раз
    Статус: √ проверено
    Размер: 1.46 GB
    Как cкачать? Как скачать Детсадовский полицейский 2 через торрент | qTorrent

    % Раздел Тема Автор DL S | L
    Фильмы 2016 [DVDrip, WEB-DLRip, HDrip] (DUB, MVO) [ 746 MB ] Детсадовский полицейский 2 / Kindergarten Cop 2 [2016 HDRip ] Sherif Скачать
    1 | 0
    Фильмы [HD 720p, 1080p] (Хороший звук DUB, MVO) [ 7.31 GB ] Детсадовский полицейский 2 / Kindergarten Cop 2 [2016 BDRip 1080p ] Ворон Скачать
    1 | 0


    >> Регистрируемся здесь <<






    Отзывы и комментарии о схеме читаем и пишем здесь: ---> Отзывы и комментарии о схеме

    Новые благодарочки в телеграм довольных пользователей:
    скриншот   скриншот   скриншот   скриншот   скриншот

    19-05-2016 20:01 Детсадовский полицейский 2 Скачать торрент  

    Наш канал на ЮТУБЕ подписывайтесь пираты)=
    https://www.youtube.com/channel/UCVOgohOugtNuCM9aXr9KVeg

    piratbit.cc



    19-05-2016 22:00 Детсадовский полицейский 2 Скачать торрент  

    ну надо куда-то вышедших в тираж засовывать... ну и ниггером обязательно приправить.... хыхыхы...
    отстой, не смотреть! piratbit.cc



    19-05-2016 22:16 Детсадовский полицейский 2 Скачать торрент  

    оценить надо что ЭТО?,а то первая часть просто шедеврpiratbit.cc



    20-05-2016 03:40 Детсадовский полицейский 2 Скачать торрент  

    Арни классно сыграл в первой части.надо эту тоже посмотреть надеюсь не розачарует)piratbit.cc



    20-05-2016 04:52 Детсадовский полицейский 2 Скачать торрент  

    надо было Чак Норриса снять!)piratbit.cc



    20-05-2016 05:42 Детсадовский полицейский 2 Скачать торрент  

    dangerless писал(а):

    надо было Чак Норриса снять!)

    Надо было Джеки Чана снять был бы беспроигрышный вариант а так этот Лундгрен нафиг не упал да еще и с негромpiratbit.cc



      Дорогой пользователь! Огромная просьба, поблагодарите релизера, оцените раздачу и оставьте свои комментарий, если Вы скачали Детсадовский полицейский 2 через торрент бесплатно! Внесите свою лепту в развитие PiratBit!
      Комментировать посты могут только пользователи прошедшие не сложную регистрацию
      Показать сообщения:    

      Детсадовский полицейский 2 через торрент
      Скачать бесплатно Детсадовский полицейский 2
      Детсадовский полицейский 2 скачать торрент
      Детсадовский полицейский 2 смотреть онлайн
      Cкачать фильм Детсадовский полицейский 2 бесплатно
      Детсадовский полицейский 2 скачать торрент в хорошем качестве
      Детсадовский полицейский 2 смотреть онлайн бесплатно в хорошем качестве


      Вы не можете начинать темы
      Вы не можете отвечать на сообщения
      Вы не можете редактировать свои сообщения
      Вы не можете удалять свои сообщения
      Вы не можете голосовать в опросах
      Вы не можете прикреплять файлы к сообщениям
      Вы можете скачивать файлы