iTunes

1+1

iTunes

мы

iTunes

1

iTunes

Чернобыль

iTunes

Ральф против интернета

Лицензия

ПШазам

Лицензия

Игра престолов

Лицензия

30
pack

ВАЖНО

!!Акция!!

Alien_RageХит недели

RePack

Resident Evil 21

ИГРА 18+

pack

RePack

Metro:Exodus

!!Акция!!

Alien_Rage

RePack

fifa19

RePack

Assassins Creed: Odyssey

RePack

NEED FOR SPEED™ PAYBACK

3 сезон

9 сезон

Бесстыжие 9 сезон

Все сериалы

все сериалы на PB.wtf

RePack

FAR CRY 5
Ребята, катастрофически не хватает 7730р. для оплаты серверов за АВГУСТ (всвязи с блокировками трафик упал в 3 раза), 1-2р., выручайте.
  

Три девятки / Triple 9 (Джон Хиллкоут / John Hillcoat) [2016, США, криминал, драма, триллер, BDRip-AVC от sokol_ok] Dub [iTunes] piratbit.cc

Три девятки через торрент piratbit.cc

Раздают: 1 [ 0 KB/s ]
Размер: 2.86 GB | Добавлен: 3 года 3 мес. назад | Торрент скачан:324 раза
Скачать  

20-05-2016 09:40 Три девятки Скачать торрент  

Три девятки
Triple 9

«Законы улицы не делятся на черные и белые»


Страна: США
Жанр: криминал, драма, триллер

Год выпуска: 2016
Продолжительность: 01:55:45

Перевод: Профессиональный (полное дублирование) [Лицензия iTunes]
Cубтитры: русские (полные), английские (полные, SDH)
Оригинальная аудиодорожка: английский

Режиссер: Джон Хиллкоут / John Hillcoat

В ролях: Чиветель Эджиофор, Кейси Аффлек, Энтони Маки, Вуди Харрельсон, Кейт Уинслет, Аарон Пол, Клифтон Коллинз мл., Норман Ридус, Галь Гадот, Тереза Палмер, Майкл Кеннет Уильямс, Мишель Энг

Описание:
Банда преступников и коррумпированных копов планирует убить полицейского, чтобы провернуть ограбление на другом конце города. Релиз:

Автор рипа: stalkerok

Сэмпл

Качество видео: BDRip-AVC [Triple.9.2016.COMPLETE.BLURAY-HDCLUB]
Формат видео: MKV
Видео кодек: AVC
Аудио кодек: AC3
Видео: 2704 Кбит/сек, 1152*482 (2,40:1), в 23,976 (24000/1001) кадра/сек, AVC
Аудио #1: русский, 384 Кбит/сек, 48 КГц, 16 бит, 5.1, AC3
Аудио #2: английский, 448 Кбит/сек, 48 КГц, 16 бит, 5.1, AC3
Навигация по главам: есть

Общее
Уникальный идентификатор : 253437569166348466396573517244798484795 (0xBEAA4CE3AC5A719F84B19E0AFAB6413B)
Полное имя : M:\1Rips\Triple 9\Triple.9.2016.BDRip-AVC.Dub.2.91Gb.stalkerok.new-team.mkv
Формат : Matroska
Версия формата : Version 4 / Version 2
Размер файла : 2,86 Гбайт
Продолжительность : 1 ч. 55 м.
Общий поток : 3539 Кбит/сек
Название фильма : Triple 9 (2016) (New-Team) (Rip by stalkerok)
Дата кодирования : UTC 2016-05-20 09:27:08
Программа кодирования : mkvmerge v8.6.1 ('Flying') 64bit
Библиотека кодирования : libebml v1.3.3 + libmatroska v1.4.4

Видео
Идентификатор : 1
Формат : AVC
Формат/Информация : Advanced Video Codec
Профиль формата : High@L4.1
Параметр CABAC формата : Да
Параметр ReFrames формата : 12 кадров
Идентификатор кодека : V_MPEG4/ISO/AVC
Продолжительность : 1 ч. 55 м.
Битрейт : 2704 Кбит/сек
Ширина : 1152 пикселя
Высота : 482 пикселя
Соотношение сторон : 2,40:1
Режим частоты кадров : Постоянный
Частота кадров : 23,976 (24000/1001) кадра/сек
Цветовое пространство : YUV
Субдискретизация насыщенности : 4:2:0
Битовая глубина : 8 бит
Тип развёртки : Прогрессивная
Бит/(Пиксели*Кадры) : 0.203
Размер потока : 2,19 Гбайт (76%)
Заголовок : Triple 9 (2016) (New-Team) (Rip by stalkerok)
Библиотека кодирования : x264 core 148 r2665kMod a01e339
Настройки программы : cabac=1 / ref=12 / deblock=1:-3:-2 / analyse=0x3:0x133 / me=umh / subme=11 / psy=1 / fade_compensate=0.00 / psy_rd=1.00:0.00 / mixed_ref=1 / me_range=32 / chroma_me=1 / trellis=2 / 8x8dct=1 / cqm=0 / deadzone=21,11 / fast_pskip=0 / chroma_qp_offset=-2 / threads=12 / lookahead_threads=3 / sliced_threads=0 / nr=0 / decimate=0 / interlaced=0 / bluray_compat=0 / constrained_intra=0 / fgo=0 / bframes=12 / b_pyramid=2 / b_adapt=2 / b_bias=0 / direct=3 / weightb=1 / open_gop=0 / weightp=2 / keyint=240 / keyint_min=23 / scenecut=40 / intra_refresh=0 / rc_lookahead=60 / rc=2pass / mbtree=0 / bitrate=2704 / ratetol=1.0 / qcomp=0.65 / qpmin=0 / qpmax=69 / qpstep=4 / cplxblur=20.0 / qblur=0.5 / vbv_maxrate=50000 / vbv_bufsize=62500 / nal_hrd=none / filler=0 / ip_ratio=1.30 / pb_ratio=1.25 / aq=1:0.85
Default : Да
Forced : Нет

Аудио #1
Идентификатор : 2
Формат : AC-3
Формат/Информация : Audio Coding 3
Расширение режима : CM (complete main)
Параметр Endianness формата : Big
Идентификатор кодека : A_AC3
Продолжительность : 1 ч. 55 м.
Вид битрейта : Постоянный
Битрейт : 384 Кбит/сек
Каналы : 6 каналов
Расположение каналов : Front: L C R, Side: L R, LFE
Частота : 48,0 КГц
Частота кадров : 31,250 кадров/сек (1536 spf)
Метод сжатия : С потерями
Размер потока : 318 Мбайт (11%)
Язык : Russian
Default : Да
Forced : Нет

Аудио #2
Идентификатор : 3
Формат : AC-3
Формат/Информация : Audio Coding 3
Расширение режима : CM (complete main)
Параметр Endianness формата : Big
Идентификатор кодека : A_AC3
Продолжительность : 1 ч. 55 м.
Вид битрейта : Постоянный
Битрейт : 448 Кбит/сек
Каналы : 6 каналов
Расположение каналов : Front: L C R, Side: L R, LFE
Частота : 48,0 КГц
Частота кадров : 31,250 кадров/сек (1536 spf)
Метод сжатия : С потерями
Размер потока : 371 Мбайт (13%)
Язык : English
Default : Нет
Forced : Нет

Текст #1
Идентификатор : 4
Формат : UTF-8
Идентификатор кодека : S_TEXT/UTF8
Идентификатор кодека/Информация : UTF-8 Plain Text
Продолжительность : 1 ч. 48 м.
Битрейт : 81 бит/сек
Count of elements : 1203
Размер потока : 65,2 Кбайт (0%)
Язык : Russian
Default : Нет
Forced : Нет

Текст #2
Идентификатор : 5
Формат : UTF-8
Идентификатор кодека : S_TEXT/UTF8
Идентификатор кодека/Информация : UTF-8 Plain Text
Продолжительность : 1 ч. 48 м.
Битрейт : 52 бит/сек
Count of elements : 1403
Размер потока : 41,6 Кбайт (0%)
Язык : English
Default : Нет
Forced : Нет

Текст #3
Идентификатор : 6
Формат : UTF-8
Идентификатор кодека : S_TEXT/UTF8
Идентификатор кодека/Информация : UTF-8 Plain Text
Продолжительность : 1 ч. 49 м.
Битрейт : 60 бит/сек
Count of elements : 1650
Размер потока : 48,4 Кбайт (0%)
Заголовок : SDH
Язык : English
Default : Нет
Forced : Нет

Меню
00:00:00.000 : en:Chapter 1
00:05:34.459 : en:Chapter 2
00:12:18.028 : en:Chapter 3
00:15:57.038 : en:Chapter 4
00:20:25.723 : en:Chapter 5
00:28:39.467 : en:Chapter 6
00:34:28.940 : en:Chapter 7
00:39:29.574 : en:Chapter 8
00:44:32.878 : en:Chapter 9
00:48:10.887 : en:Chapter 10
00:56:32.639 : en:Chapter 11
01:02:03.177 : en:Chapter 12
01:07:03.018 : en:Chapter 13
01:12:12.618 : en:Chapter 14
01:16:22.493 : en:Chapter 15
01:21:41.645 : en:Chapter 16
01:26:30.100 : en:Chapter 17
01:32:35.675 : en:Chapter 18
01:41:34.253 : en:Chapter 19
01:50:13.314 : en:Chapter 20
piratbit.cc



Скачать Три девятки через торрент http://i72.fastpic.ru/big/2015/0531/46/68ef8a2783b58e5344cc30bbd3f1b046.png Скачать фильм Три девятки через торрент бесплантно в хорошем качестве Описание:Банда преступников и коррумпированных копов планирует убить полицейского, чтобы провернуть ограбление на другом конце города. ... 8.3 10 8
Info! Золотая раздача, скачанное не засчитывается.
Торрент: Зарегистрирован [2016-05-20 09:40] · скачан: 324 раз
Статус: √ проверено
Размер: 2.86 GB
Как cкачать? Как скачать Три девятки через торрент | qTorrent

% Раздел Тема Автор DL S | L
Фильмы [HD 720p, 1080p] (Хороший звук DUB, MVO) [ 12.37 GB ] Три девятки / Triple 9 [2016 BDRip 1080p] DUB [ R5] bober100 Скачать
2 | 0
Фильмы [HD 720p, 1080p] (Хороший звук DUB, MVO) [ 10.19 GB ] Три девятки / Triple 9 [2016 BDRip 720p] DUB [ R5] bober100 Скачать
1 | 0
Фильмы 2016 [DVDrip, WEB-DLRip, HDrip] (DUB, MVO) [ 2.18 GB ] Три девятки / Triple 9 [2016 HDRip "BD RUS"] coc900 Скачать
1 | 0
Фильмы (Blu-ray, BD-Remux, HDDVD) [ 18.45 GB ] Три девятки / Triple 9 [2016 BD Remux 1080p] DUB [] bober100 Скачать
1 | 0
Фильмы (WEB-DL 720p, 1080p) [ 4.45 GB ] Три девятки / Triple 9 [2016 WEB-DL 1080p ] MeZZAPT Скачать
1 | 0
Фильмы 2016 [DVDrip, WEB-DLRip, HDrip] (DUB, MVO) [ 1.46 GB ] Три девятки / Triple 9 [2016 BDRip] - [] Twi7ter Скачать
1 | 0
Фильмы (DVD фильмы) [ 7.1 GB ] Три девятки / Triple 9 [2016 DVD9] R5 voovaz Скачать
1 | 0


>> Регистрируемся здесь <<






Отзывы и комментарии о схеме читаем и пишем здесь: ---> Отзывы и комментарии о схеме

Новые благодарочки в телеграм довольных пользователей:
скриншот   скриншот   скриншот   скриншот   скриншот
    Дорогой пользователь! Огромная просьба, поблагодарите релизера, оцените раздачу и оставьте свои комментарий, если Вы скачали Три девятки через торрент бесплатно! Внесите свою лепту в развитие PiratBit!
    Комментировать посты могут только пользователи прошедшие не сложную регистрацию
    Показать сообщения:    

    Три девятки через торрент
    Скачать бесплатно Три девятки
    Три девятки скачать торрент
    Три девятки смотреть онлайн
    Cкачать фильм Три девятки бесплатно
    Три девятки скачать торрент в хорошем качестве
    Три девятки смотреть онлайн бесплатно в хорошем качестве


    Вы не можете начинать темы
    Вы не можете отвечать на сообщения
    Вы не можете редактировать свои сообщения
    Вы не можете удалять свои сообщения
    Вы не можете голосовать в опросах
    Вы не можете прикреплять файлы к сообщениям
    Вы можете скачивать файлы