Лицензия

30

iTunes

мы

iTunes

1

1 сезон

Чернобыль

1 сезон

Ральф против интернета

MVO

Покемон. Детектив Пикачу

8 сезон

Игра престолов

iTunes

1+1

ИГРА 18+

pack

ВАЖНО

!!Акция!!

Alien_RageХит недели

RePack

Resident Evil 21
pack

RePack

Metro:Exodus

!!Акция!!

Alien_Rage

RePack

fifa19

RePack

Assassins Creed: Odyssey

RePack

NEED FOR SPEED™ PAYBACK

3 сезон

9 сезон

Бесстыжие 9 сезон

Все сериалы

все сериалы на PB.wtf

RePack

FAR CRY 5
Ребята, катастрофически не хватает 2730р. для оплаты серверов за МАЙ (всвязи с блокировками трафик упал в 3 раза), 1-2р., выручайте.
  

Боги Египта / Gods of Egypt (Алекс Пройас / Alex Proyas) [2016, США, фэнтези, боевик, приключения, BDRip-AVC от sokol_ok] DUB Лицензия piratbit.cc

Боги Египта через торрент piratbit.cc

Раздают: 5 [ 0 KB/s ]
Размер: 1.46 GB | Добавлен: 3 года назад | Торрент скачан:1829 раз
Скачать  

21-05-2016 12:42 Боги Египта Скачать торрент  

Боги Египта
Gods of Egypt

«All of Heaven is at war»


Страна: США
Жанр: фэнтези, боевик, приключения

Год выпуска: 2016
Продолжительность: 02:07:02

Перевод: Профессиональный (полное дублирование) [Лицензия]
Cубтитры: русские (полные), английские (полные, SDH)
Оригинальная аудиодорожка: нет

Режиссер: Алекс Пройас / Alex Proyas

В ролях: Брентон Туэйтс, Джерард Батлер, Николай Костер-Вальдау, Чедвик Боузман, Элоди Юнг, Кортни Итон, Руфус Сьюэлл, Джеффри Раш, Брайан Браун, Рэйчел Блейк, Эмма Бут, Александр Инглэнд

Описание:
Некогда мирное и процветающее египетское царство погружается в хаос: беспощадный бог тьмы Сет убивает своего брата Осириса и узурпирует трон. Вызов ему неожиданно бросает простой смертный, находчивый молодой вор. Чтобы вернуть к жизни свою прекрасную возлюбленную, ему приходится заручиться поддержкой могущественного и мстительного бога Гора. Лишь выдержав испытание на прочность и принеся в жертву все самое дорогое, им удастся противостоять Сету и его приспешникам в мире живых и мире мертвых. Релиз:

Автор рипа: stalkerok

Сэмпл

Качество видео: BDRip-AVC [Gods.of.Egypt.2016.COMPLETE.BLURAY-HDCLUB]
Формат видео: MKV
Видео кодек: AVC
Аудио кодек: AC3
Видео: 1449 Кбит/сек, 888x370 (2.40:1), 23,976 кадр/сек, AVC
Аудио: русский, 192 Кбит/сек, 48 КГц, 16 бит, 2.0, AC3
Навигация по главам: есть

Общее
Уникальный идентификатор : 229202622148143602995482371970631575852 (0xAC6ED1BFC9FD92C9BBBA44A01405A92C)
Полное имя : M:\1Rips\Gods of Egypt\Gods of Egypt.2016.BDRip-AVC.Dub.1.45Gb.stalkerok.new-team.mkv
Формат : Matroska
Версия формата : Version 4 / Version 2
Размер файла : 1,46 Гбайт
Продолжительность : 2 ч. 7 м.
Общий поток : 1642 Кбит/сек
Название фильма : Gods of Egypt (2016) (New-Team) (Rip by stalkerok)
Дата кодирования : UTC 2016-05-21 12:38:31
Программа кодирования : mkvmerge v8.6.1 ('Flying') 64bit
Библиотека кодирования : libebml v1.3.3 + libmatroska v1.4.4

Видео
Идентификатор : 1
Формат : AVC
Формат/Информация : Advanced Video Codec
Профиль формата : High@L4.1
Параметр CABAC формата : Да
Параметр ReFrames формата : 14 кадров
Идентификатор кодека : V_MPEG4/ISO/AVC
Продолжительность : 2 ч. 7 м.
Битрейт : 1449 Кбит/сек
Ширина : 888 пикселей
Высота : 370 пикселей
Соотношение сторон : 2,40:1
Режим частоты кадров : Постоянный
Частота кадров : 23,976 (24000/1001) кадра/сек
Цветовое пространство : YUV
Субдискретизация насыщенности : 4:2:0
Битовая глубина : 8 бит
Тип развёртки : Прогрессивная
Бит/(Пиксели*Кадры) : 0.184
Размер потока : 1,29 Гбайт (88%)
Заголовок : Gods of Egypt (2016) (New-Team) (Rip by stalkerok)
Библиотека кодирования : x264 core 148 r2665kMod a01e339
Настройки программы : cabac=1 / ref=14 / deblock=1:-3:-2 / analyse=0x3:0x133 / me=umh / subme=10 / psy=1 / fade_compensate=0.00 / psy_rd=1.03:0.00 / mixed_ref=1 / me_range=32 / chroma_me=1 / trellis=2 / 8x8dct=1 / cqm=0 / deadzone=21,11 / fast_pskip=0 / chroma_qp_offset=-2 / threads=12 / lookahead_threads=2 / sliced_threads=0 / nr=0 / decimate=0 / interlaced=0 / bluray_compat=0 / constrained_intra=0 / fgo=0 / bframes=14 / b_pyramid=2 / b_adapt=2 / b_bias=0 / direct=3 / weightb=1 / open_gop=0 / weightp=2 / keyint=240 / keyint_min=23 / scenecut=40 / intra_refresh=0 / rc_lookahead=60 / rc=2pass / mbtree=0 / bitrate=1449 / ratetol=1.0 / qcomp=0.65 / qpmin=0 / qpmax=69 / qpstep=4 / cplxblur=20.0 / qblur=0.5 / vbv_maxrate=50000 / vbv_bufsize=62500 / nal_hrd=none / filler=0 / ip_ratio=1.40 / pb_ratio=1.30 / aq=1:0.90
Default : Да
Forced : Нет

Аудио
Идентификатор : 2
Формат : AC-3
Формат/Информация : Audio Coding 3
Расширение режима : CM (complete main)
Параметр Endianness формата : Big
Идентификатор кодека : A_AC3
Продолжительность : 2 ч. 7 м.
Вид битрейта : Постоянный
Битрейт : 192 Кбит/сек
Каналы : 2 канала
Расположение каналов : Front: L R
Частота : 48,0 КГц
Частота кадров : 31,250 кадров/сек (1536 spf)
Метод сжатия : С потерями
Размер потока : 174 Мбайт (12%)
Язык : Russian
Default : Да
Forced : Нет

Текст #1
Идентификатор : 3
Формат : UTF-8
Идентификатор кодека : S_TEXT/UTF8
Идентификатор кодека/Информация : UTF-8 Plain Text
Продолжительность : 1 ч. 55 м.
Битрейт : 75 бит/сек
Count of elements : 1064
Размер потока : 64,1 Кбайт (0%)
Язык : Russian
Default : Нет
Forced : Нет

Текст #2
Идентификатор : 4
Формат : UTF-8
Идентификатор кодека : S_TEXT/UTF8
Идентификатор кодека/Информация : UTF-8 Plain Text
Продолжительность : 1 ч. 55 м.
Битрейт : 46 бит/сек
Count of elements : 1230
Размер потока : 39,8 Кбайт (0%)
Язык : English
Default : Нет
Forced : Нет

Текст #3
Идентификатор : 5
Формат : UTF-8
Идентификатор кодека : S_TEXT/UTF8
Идентификатор кодека/Информация : UTF-8 Plain Text
Продолжительность : 1 ч. 55 м.
Битрейт : 52 бит/сек
Count of elements : 1487
Размер потока : 44,2 Кбайт (0%)
Заголовок : SDH
Язык : English
Default : Нет
Forced : Нет

Меню
00:00:00.000 : en:Chapter 1
00:07:08.009 : en:Chapter 2
00:18:07.544 : en:Chapter 3
00:23:47.259 : en:Chapter 4
00:30:11.808 : en:Chapter 5
00:39:16.518 : en:Chapter 6
00:46:30.621 : en:Chapter 7
00:54:46.074 : en:Chapter 8
01:01:14.128 : en:Chapter 9
01:09:29.037 : en:Chapter 10
01:18:03.345 : en:Chapter 11
01:28:18.251 : en:Chapter 12
01:36:12.055 : en:Chapter 13
01:39:14.655 : en:Chapter 14
01:46:58.328 : en:Chapter 15
01:52:11.015 : en:Chapter 16
piratbit.cc



Скачать Боги Египта через торрент http://i72.fastpic.ru/big/2015/0531/46/68ef8a2783b58e5344cc30bbd3f1b046.png Скачать фильм Боги Египта через торрент бесплантно в хорошем качестве Описание:Некогда мирное и процветающее египетское царство погружается в хаос: беспощадный бог тьмы Сет убивает своего брата Осириса и ... 9.5 10 25
Info! Золотая раздача, скачанное не засчитывается.
Торрент: Зарегистрирован [2016-05-21 12:42] · скачан: 1 829 раз
Статус: √ проверено
Размер: 1.46 GB
Как cкачать? Как скачать Боги Египта через торрент | qTorrent

% Раздел Тема Автор DL S | L
Ultra HD (UHD: 2K, 4K, 8K) — видео сверхвысокой чёткости [ 56.39 GB ] Боги Египта / Gods of Egypt [2016 UHD BDRemux 2160p] DUB [] + AVO [А. Матвеев] sheker187 Скачать
1 | 0
Фильмы 2016 [DVDrip, WEB-DLRip, HDrip] (DUB, MVO) [ 2.91 GB ] Боги Египта / Gods of Egypt [2016 BDRip-AVC от sokol_ok] DUB sokol_ok Скачать
4 | 0
Фильмы 2016 [DVDrip, WEB-DLRip, HDrip] (DUB, MVO) [ 1.46 GB ] Боги Египта / Gods of Egypt [2016 BDRip] DUB Twi7ter Скачать
1 | 0
R.G. Resident & PiratVoice - Фильмы, Видео [ 2.17 GB ] Боги Египта / Gods of Egypt [2016 BDRip-AVC] DUB R.G.Resident White Smoke Скачать
3 | 0
3D Фильмы [ 17.57 GB ] Боги Египта в 3Д / Gods of Egypt 3D [2016 BDrip 1080p] DUB / OverUnder / Вертикальная стереопара serega768 Скачать
2 | 0
Фильмы [HD 720p, 1080p] (Хороший звук DUB, MVO) [ 11.66 GB ] Боги Египта / Gods of Egypt [2016 BDRip 1080p от NNNB] DUB () _denis_100 Скачать
2 | 0


>> Регистрируемся здесь <<






Отзывы и комментарии о схеме читаем и пишем здесь: ---> Отзывы и комментарии о схеме

Новые благодарочки в телеграм довольных пользователей:
скриншот   скриншот   скриншот   скриншот   скриншот

23-05-2016 17:19 Боги Египта Скачать торрент  

и сиське есть и картинка ничего такая есть, ну почти все есть piratbit.cc



    Дорогой пользователь! Огромная просьба, поблагодарите релизера, оцените раздачу и оставьте свои комментарий, если Вы скачали Боги Египта через торрент бесплатно! Внесите свою лепту в развитие PiratBit!
    Комментировать посты могут только пользователи прошедшие не сложную регистрацию
    Показать сообщения:    

    Боги Египта через торрент
    Скачать бесплатно Боги Египта
    Боги Египта скачать торрент
    Боги Египта смотреть онлайн
    Cкачать фильм Боги Египта бесплатно
    Боги Египта скачать торрент в хорошем качестве
    Боги Египта смотреть онлайн бесплатно в хорошем качестве


    Вы не можете начинать темы
    Вы не можете отвечать на сообщения
    Вы не можете редактировать свои сообщения
    Вы не можете удалять свои сообщения
    Вы не можете голосовать в опросах
    Вы не можете прикреплять файлы к сообщениям
    Вы можете скачивать файлы