Лицензия

30

iTunes

мы

iTunes

1

1 сезон

Чернобыль

1 сезон

Ральф против интернета

MVO

Покемон. Детектив Пикачу

8 сезон

Игра престолов

iTunes

1+1

ИГРА 18+

pack

ВАЖНО

!!Акция!!

Alien_RageХит недели

RePack

Resident Evil 21
pack

RePack

Metro:Exodus

!!Акция!!

Alien_Rage

RePack

fifa19

RePack

Assassins Creed: Odyssey

RePack

NEED FOR SPEED™ PAYBACK

3 сезон

9 сезон

Бесстыжие 9 сезон

Все сериалы

все сериалы на PB.wtf

RePack

FAR CRY 5
Ребята, катастрофически не хватает 2730р. для оплаты серверов за МАЙ (всвязи с блокировками трафик упал в 3 раза), 1-2р., выручайте.
  

В Париж! (Сергей Крутин) [2009, Россия, драма, DVDRip от AVP Studio] piratbit.cc

В Париж! через торрент piratbit.cc

Размер: 1.46 GB | Добавлен: 2 года 10 мес. назад | Торрент скачан:37 раз
Скачать  

09-08-2016 21:28 В Париж! Скачать торрент  

В Париж!
Страна: Россия
Производство: ПЦ "Пирамида" (ООО "Максимус")

Жанр: драма
Год выпуска: 2008
Продолжительность: 02:04:05

Перевод: Не требуется
Cубтитры: нет
Оригинальная аудиодорожка: русский

Режиссер: Сергей Крутин

В ролях:
Юрий Степанов, Ярослав Жалнин, Валерия Ходос, Полина Кутепова, Георгий Дрозд, Сергей Радченко (II), Евгений Шах, Анатолий Зиновенко, Евгений Ефремов (II), Сергей Сипливый...
Полный список актёров

Описание:
Действие фильма происходит в 60-е годы прошлого века, в заштатном провинциальном городке. Иван – передовик, токарь на заводе, один растит сына Лешку. В семье возникают проблемы: у любимой женщины Ивана огромная недостача, ей грозит тюрьма. А Лешку, на глазах любимой девушки, унизили хулиганы. Батя находит нестандартный выход из этих ситуаций: он сам делает пистолет (чтобы Лешка отомстил хулиганам), потом вместе с сыном идет грабить кафе, чтобы помочь Маше покрыть недостачу. Постепенно Лешка входит во вкус, ему нравится Влacть над людьми, он совершает первое убийство. Вдруг Иван понимает, что он своими руками вырастил убийцу…

Источник: DVD5 R5
Качество видео: DVDRip
Формат видео: AVI

Видео: 688x384 (16:9), 25 fps, XviD ~ 1483 kbps avg, 0.224 bit/pixel
Аудио: 48 kHz, Dolby Digital AC3 2.0, 192 kbps

Раздача от:
Общее
Полное имя : V.Parizh!2008.DVDRip_[New-team]_by_AVP_Studio.avi
Формат : AVI
Формат/Информация : Audio Video Interleave
Размер файла : 1,46 Гбайт
Продолжительность : 2 ч. 4 м.
Общий поток : 1684 Кбит/сек
Программа кодирования : VirtualDubMod 1.5.10.3 | www.virtualdub-fr.org || (build 2550/release)
Библиотека кодирования : VirtualDubMod build 2550/release

Видео
Идентификатор : 0
Формат : MPEG-4 Visual
Профиль формата : Advanced Simple@L5
Параметр BVOP формата : 1
Параметр QPel формата : Нет
Параметр GMC формата : Без точки перехода
Параметр матрицы формата : Выборочная
Идентификатор кодека : XVID
Идентификатор кодека/Подсказка : XviD
Продолжительность : 2 ч. 4 м.
Битрейт : 1483 Кбит/сек
Ширина : 688 пикселей
Высота : 384 пикселя
Соотношение сторон : 16:9
Частота кадров : 25,000 кадров/сек
Цветовое пространство : YUV
Субдискретизация насыщенности : 4:2:0
Битовая глубина : 8 бит
Тип развёртки : Прогрессивная
Метод сжатия : С потерями
Бит/(Пиксели*Кадры) : 0.224
Размер потока : 1,29 Гбайт (88%)
Библиотека кодирования : XviD 1.2.1 (UTC 2008-12-04)

Аудио
Идентификатор : 1
Формат : AC-3
Формат/Информация : Audio Coding 3
Расширение режима : CM (complete main)
Параметр Endianness формата : Big
Идентификатор кодека : 2000
Продолжительность : 2 ч. 4 м.
Вид битрейта : Постоянный
Битрейт : 192 Кбит/сек
Каналы : 2 канала
Расположение каналов : Front: L R
Частота : 48,0 КГц
Частота кадров : 31,250 кадров/сек (1536 spf)
Метод сжатия : С потерями
Размер потока : 170 Мбайт (11%)
Выравнивание : Разделение по промежуткам
Продолжительность промежутка : 40 мс. (1,00 видеокадр)
Время предзагрузки промежутка : 500 мс
piratbit.cc



Скачать В Париж! через торрент http://s017.radikal.ru/i440/1608/9b/9d3832d60b48.png Скачать фильм В Париж! через торрент бесплантно в хорошем качестве Описание:Действие фильма происходит в 60-е годы прошлого века, в заштатном провинциальном городке. Иван – передовик, токарь на заводе, один ... 10 10 1
Info! Золотая раздача, скачанное не засчитывается.
Торрент: Зарегистрирован [2016-08-09 21:28] · скачан: 37 раз
Статус: √ проверено
Размер: 1.46 GB
Как cкачать? Как скачать В Париж! через торрент | qTorrent

% Раздел Тема Автор DL S | L
Классические порно фильмы [ 664 MB ] Последняя румба в Париже / Last Rumba In Paris [1989 Feature Gonzo Big Boobs DVDRip] Скорпион1976 Скачать
2 | 0
Детективы, Боевики, Триллеры [ 145 MB ] Джеймс Хедли Чейз - Весна в Париже [Сергей Горбунов Евгений Терновский 2018 56 kbps MP3] oleg8 Скачать
2 | 0
Наши фильмы, до 2010 [ 1.45 GB ] Окно в Париж [1993 DVDRip] olegus16 Скачать
1 | 0
Гонзо [ 1.37 GB ] ПРИКЛЮЧЕНИЯ ИНДИАНКИ В ПАРИЖЕ / LES AVENTURES D'UNE INDIENNE À PARIS [2018 Gonzo Anal Oral Threesome Lesbians Sex Toys Play WEBRip Оригинальный] DJASFUL Скачать
1 | 0
Фильмы [HD 720p, 1080p] (Хороший звук DUB, MVO) [ 3.62 GB ] Американский оборотень в Париже / An American Werewolf in Paris [1997 BDRip 1080p HEVC] 3хDVO 3хAVO VO ADVOKAT69 Скачать
1 | 0
Фильмы [HD 720p, 1080p] (Хороший звук DUB, MVO) [ 7.3 GB ] Последнее танго в Париже / Ultimo tango a Parigi [1972 BDRip 720p by msltel] DUB 4 x MVO 3 x DVO 2 x AVO msltel Скачать
1 | 0
Фильмы [HD 720p, 1080p] (Хороший звук DUB, MVO) [ 18.6 GB ] Последнее танго в Париже / Ultimo tango a Parigi [1972 BDRip 1080p by msltel] DUB 4 x MVO 3 x DVO 2 x AVO msltel Скачать
1 | 0


>> Регистрируемся здесь <<






Отзывы и комментарии о схеме читаем и пишем здесь: ---> Отзывы и комментарии о схеме

Новые благодарочки в телеграм довольных пользователей:
скриншот   скриншот   скриншот   скриншот   скриншот

10-08-2016 07:23 В Париж! Скачать торрент  

Как фильм смотреть можно?piratbit.cc



    Дорогой пользователь! Огромная просьба, поблагодарите релизера, оцените раздачу и оставьте свои комментарий, если Вы скачали В Париж! через торрент бесплатно! Внесите свою лепту в развитие PiratBit!
    Комментировать посты могут только пользователи прошедшие не сложную регистрацию
    Показать сообщения:    

    В Париж! через торрент
    Скачать бесплатно В Париж!
    В Париж! скачать торрент
    В Париж! смотреть онлайн
    Cкачать фильм В Париж! бесплатно
    В Париж! скачать торрент в хорошем качестве
    В Париж! смотреть онлайн бесплатно в хорошем качестве


    Вы не можете начинать темы
    Вы не можете отвечать на сообщения
    Вы не можете редактировать свои сообщения
    Вы не можете удалять свои сообщения
    Вы не можете голосовать в опросах
    Вы не можете прикреплять файлы к сообщениям
    Вы можете скачивать файлы