Лицензия

30

iTunes

мы

iTunes

1

1 сезон

Чернобыль

1 сезон

Ральф против интернета

MVO

Покемон. Детектив Пикачу

8 сезон

Игра престолов

iTunes

1+1

ИГРА 18+

pack

ВАЖНО

!!Акция!!

Alien_RageХит недели

RePack

Resident Evil 21
pack

RePack

Metro:Exodus

!!Акция!!

Alien_Rage

RePack

fifa19

RePack

Assassins Creed: Odyssey

RePack

NEED FOR SPEED™ PAYBACK

3 сезон

9 сезон

Бесстыжие 9 сезон

Все сериалы

все сериалы на PB.wtf

RePack

FAR CRY 5
Ребята, катастрофически не хватает 2730р. для оплаты серверов за МАЙ (всвязи с блокировками трафик упал в 3 раза), 1-2р., выручайте.
  

Зависть богов (Владимир Меньшов) [2000 г., драма, мелодрама, DVDRip] piratbit.cc

Зависть богов через торрент piratbit.cc

Размер: 1.46 GB | Добавлен: 2 года 8 мес. назад | Торрент скачан:5 раз
Скачать  

04-10-2016 19:21 Зависть богов Скачать торрент  

Зависть боговГод выпуска: 2000
Страна: Россия
Жанр: драма, мелодрама
Продолжительность: 02:10:14
Субтитры: отсутствуют

Режиссер: Владимир Меньшов
Продюссер: Александр Литвинов, Владимир Меньшов, Наталья Попова
Сценарий: Марина Мареева, Владимир Меньшов

Бюджет: $420 000
Премьера в мире: 15 октября 2000

зрителям, достигшим 16 лет

rating

В ролях: Вера Алентова, Анатолий Лобоцкий, Александр Феклистов, Жерар Депардье, Владлен Давыдов, Марина Дюжева, Людмила Иванова, Юрий Колокольников, Виктор Павлов, Ирина Скобцева

Описание: 1983 год. Телевизионный редактор Соня и переводчик из Франции Андрэ встретились в Москве и полюбили друг друга. У Сони есть сын-подросток и муж, успешный писатель. У Андрэ тоже есть семья в Париже. И вдруг для них исчезло все, кроме внезапно нахлынувшей страсти. Несколько дней своей жизни они были абсолютно счастливы, однако боги не остались равнодушными…

Качество: DVDRip
Формат: AVI
Видео кодек: XviD
Аудио кодек: AC3
Видео: XviD, 1146 kb/s, 704 x528, 25.000 fps, 8 bits
Аудио#1: AC-3, 448 Kbps, (6 ch), 48.0 KHz,
скриншот  скриншот  скриншот  скриншот  скриншот  скриншот  

General
Complete name : E:\Zavist bogov.2000.avi
Format : AVI
Format/Info : Audio Video Interleave
File size : 1.46 GiB
Duration : 2h 10mn
Overall bit rate : 1 601 Kbps
Writing application : VirtualDubMod 1.5.4.1 (build 2178/release)
Writing library : VirtualDubMod build 2178/release

Video
ID : 0
Format : MPEG-4 Visual
Format profile : Advanced Simple@L5
Format settings, BVOP : 1
Format settings, QPel : No
Format settings, GMC : No warppoints
Format settings, Matrix : Custom
Codec ID : XVID
Codec ID/Hint : XviD
Duration : 2h 10mn
Bit rate : 1 146 Kbps
Width : 704 pixels
Height : 528 pixels
Display aspect ratio : 4:3
Frame rate : 25.000 fps
Color space : YUV
Chroma subsampling : 4:2:0
Bit depth : 8 bits
Scan type : Progressive
Compression mode : Lossy
Bits/(Pixel*Frame) : 0.123
Stream size : 1.04 GiB (72%)
Writing library : XviD 64

Audio
ID : 1
Format : AC-3
Format/Info : Audio Coding 3
Mode extension : CM (complete main)
Format settings, Endianness : Big
Codec ID : 2000
Duration : 2h 10mn
Bit rate mode : Constant
Bit rate : 448 Kbps
Channel(s) : 6 channels
Channel positions : Front: L C R, Side: L R, LFE
Sampling rate : 48.0 KHz
Frame rate : 31.250 fps (1536 spf)
Compression mode : Lossy
Delay relative to video : 6s 275ms
Stream size : 417 MiB (28%)
Alignment : Split accross interleaves
Interleave, duration : 96 ms (2.40 video frames)
Interleave, preload duratio : 96 ms
Language : Russian

piratbit.cc



Скачать Зависть богов через торрент http://pic1.kartinco.top/images/10/1jlg1.jpg Скачать фильм Зависть богов через торрент бесплантно в хорошем качестве Описание: 1983 год. Телевизионный редактор Соня и переводчик из Франции Андрэ встретились в Москве и полюбили друг друга. У Сони есть ... 10 10 3
Info! Золотая раздача, скачанное не засчитывается.
Торрент: Зарегистрирован [2016-10-04 19:21] · скачан: 5 раз
Статус: √ проверено
Размер: 1.46 GB
Как cкачать? Как скачать Зависть богов через торрент | qTorrent


>> Регистрируемся здесь <<






Отзывы и комментарии о схеме читаем и пишем здесь: ---> Отзывы и комментарии о схеме

Новые благодарочки в телеграм довольных пользователей:
скриншот   скриншот   скриншот   скриншот   скриншот
    Дорогой пользователь! Огромная просьба, поблагодарите релизера, оцените раздачу и оставьте свои комментарий, если Вы скачали Зависть богов через торрент бесплатно! Внесите свою лепту в развитие PiratBit!
    Комментировать посты могут только пользователи прошедшие не сложную регистрацию
    Показать сообщения:    

    Зависть богов через торрент
    Скачать бесплатно Зависть богов
    Зависть богов скачать торрент
    Зависть богов смотреть онлайн
    Cкачать фильм Зависть богов бесплатно
    Зависть богов скачать торрент в хорошем качестве
    Зависть богов смотреть онлайн бесплатно в хорошем качестве


    Вы не можете начинать темы
    Вы не можете отвечать на сообщения
    Вы не можете редактировать свои сообщения
    Вы не можете удалять свои сообщения
    Вы не можете голосовать в опросах
    Вы не можете прикреплять файлы к сообщениям
    Вы можете скачивать файлы