Лицензия

30

iTunes

мы

iTunes

1

1 сезон

Чернобыль

iTunes

1+1

iTunes

Закатать в асфальт

8 сезон

Игра престолов

1 сезон

Ральф против интернета

ИГРА 18+

pack

ВАЖНО

!!Акция!!

Alien_RageХит недели

RePack

Resident Evil 21
pack

RePack

Metro:Exodus

!!Акция!!

Alien_Rage

RePack

fifa19

RePack

Assassins Creed: Odyssey

RePack

NEED FOR SPEED™ PAYBACK

3 сезон

9 сезон

Бесстыжие 9 сезон

Все сериалы

все сериалы на PB.wtf

RePack

FAR CRY 5
Ребята, катастрофически не хватает 2730р. для оплаты серверов за АПРЕЛЬ (всвязи с блокировками трафик упал в 3 раза), 1-2р., выручайте.
  

Свадьба (Павел Лунгин) [2000, мелодрама, трагикомедия, DVDRip] piratbit.cc

Свадьба через торрент piratbit.cc

Размер: 1.47 GB | Добавлен: 2 года 3 мес. назад | Торрент скачан:42 раза
Скачать  

29-01-2017 12:11 Свадьба Скачать торрент  

Свадьба

Год выпуска: 2000
Страна: Франция, Россия, Германия
Жанр: драма, комедия
Продолжительность: 01:48:44
Перевод: Не требуется [Русский]
Режиссер: Павел Лунгин
В ролях:

Марат Башаров (Мишка), Мария Миронова (Таня), Андрей Панин (Гаркуша), Александр Семчев (Борзов), Наталья Коляканова (Римма), Владимир Симонов (Бородин), Мария Голубкина (Света), Елена Новикова (Зойка), Владимир Кашпур, Павел Поймалов, Анна Штукатурова, Михаил Матвеев
Описание:
Молодая девушка Таня возвращается из Москвы в родной город Липки. Все вокруг ей знакомо с детства: дома и их жители, подруги и простой парень Миша, любящий ее еще со школы. На танцах, хлебнув водки для храбрости, Таня пообещала Мише подбросить монетку и, если выпадет орел, она выйдет за него замуж...
Рейтинг:

Качество: DVDRip
Формат: AVI
Видео: DivX 5, 688x416 (5:3), 1734 kbps, 25 fps, 0,242 bpp
Аудио: AC3 / 2.0 / 48 kHz / 192 kbps /

Исходный DVD, как и многие другие издания отечественных фильмов в формате NTSC, представляет собой весьма некачественный трансфер из PAL в NTSC с переменным порядком полей и дублированными кадрами (также видео сильно зашумлено). Обычный деинтерлейс и обратный телесин в таких случаях не помогают, спасает только снижение частоты кадров до исходных 25 fps, что и проделано в данном рипе.
Имеющаяся в исходнике 6-канальная аудиодорожка - "дутая": все диалоги отчетливо слышны не только в центральном, но и во всех фронтальных и тыловых каналах.

Поэтому для данного рипа она переконвертирована в стерео (использованные программы - PgsDemux, BeSweet, Adobe Audition 3.0, Sonic Foudry Soft Encode).
Сравнение скриншотов с этим релизом: http://pb.wtf/topic/15001/
http://screenshotcomparison.com/comparison/198786

General
Complete name : E:\Torrent\film\Svadba\Svadba.avi
Format : AVI
Format/Info : Audio Video Interleave
File size : 1.47 GiB
Duration : 1 h 48 min
Overall bit rate : 1 937 kb/s
Writing application : VirtualDubMod 1.5.10.3 | www.virtualdub-fr.org || (build 2550/release)
Writing library : VirtualDubMod build 2550/release

Video
ID : 0
Format : MPEG-4 Visual
Format profile : Advanced Simple@L5
Format settings, BVOP : 1
Format settings, QPel : No
Format settings, GMC : No warppoints
Format settings, Matrix : Custom
Codec ID : DX50
Codec ID/Hint : DivX 5
Duration : 1 h 48 min
Bit rate : 1 735 kb/s
Width : 688 pixels
Height : 416 pixels
Display aspect ratio : 5:3
Frame rate : 25.000 FPS
Color space : YUV
Chroma subsampling : 4:2:0
Bit depth : 8 bits
Scan type : Progressive
Compression mode : Lossy
Bits/(Pixel*Frame) : 0.242
Stream size : 1.32 GiB (90%)
Writing library : XviD 73

Audio
ID : 1
Format : AC-3
Format/Info : Audio Coding 3
Mode extension : CM (complete main)
Format settings, Endianness : Big
Codec ID : 2000
Duration : 1 h 48 min
Bit rate mode : Constant
Bit rate : 192 kb/s
Channel(s) : 2 channels
Channel positions : Front: L R
Sampling rate : 48.0 kHz
Frame rate : 31.250 FPS (1536 spf)
Compression mode : Lossy
Stream size : 149 MiB (10%)
Alignment : Split accross interleaves
Interleave, duration : 40 ms (1.00 video frame)
Interleave, preload duration : 500 ms
piratbit.cc



Скачать Свадьба через торрент http://i1.imageban.ru/out/2017/01/29/4da10b2c091380cc620274df419ea6a0.jpg Скачать фильм Свадьба через торрент бесплантно в хорошем качестве Описание: Молодая девушка Таня возвращается из Москвы в родной город Липки. Все вокруг ей знакомо с детства: дома и их жители, подруги и ... 10 10 3
Торрент: Зарегистрирован [2017-01-29 12:11] · скачан: 42 раз
Статус: √ проверено
Размер: 1.47 GB
Как cкачать? Как скачать Свадьба через торрент | qTorrent

% Раздел Тема Автор DL S | L
Наши фильмы (Blu-ray, BD-Remux, HDDVD) [ 19.31 GB ] Свадьба в Малиновке [1967 мюзикл Blu-Ray Remux Оригинал] dallas2007 Скачать
1 | 0
Фильмы 2009 [ 2.17 GB ] Чак и Ларри: Пожарная свадьба / I Now Pronounce You Chuck & Larry [2009 ... HDRip] Steel Скачать
1 | 0
Кино СССР [ 2.18 GB ] Свадьба Кречинского [1953 СССР DVDRip-AVC от AVP Studio] AVP Studio Скачать
1 | 0
Кино СССР [ 1.09 GB ] Свадьба Кречинского [1953 СССР DVDRip от AVP Studio] AVP Studio Скачать
1 | 0
Кино СССР [ 2.18 GB ] Свадьба Кречинского [1953 СССР DVDRip от AVP Studio] AVP Studio Скачать
1 | 0
Кино СССР [ 1.46 GB ] Свадьба с приданым [1953 мюзикл SATRip-AVC от AVP Studio] AVP Studio Скачать
1 | 0
Кино СССР [ 1.09 GB ] Свадьба с приданым [1953 мюзикл SATRip от AVP Studio] AVP Studio Скачать
1 | 0


>> Регистрируемся здесь <<






Отзывы и комментарии о схеме читаем и пишем здесь: ---> Отзывы и комментарии о схеме

Новые благодарочки в телеграм довольных пользователей:
скриншот   скриншот   скриншот   скриншот   скриншот
    Дорогой пользователь! Огромная просьба, поблагодарите релизера, оцените раздачу и оставьте свои комментарий, если Вы скачали Свадьба через торрент бесплатно! Внесите свою лепту в развитие PiratBit!
    Комментировать посты могут только пользователи прошедшие не сложную регистрацию
    Показать сообщения:    

    Свадьба через торрент
    Скачать бесплатно Свадьба
    Свадьба скачать торрент
    Свадьба смотреть онлайн
    Cкачать фильм Свадьба бесплатно
    Свадьба скачать торрент в хорошем качестве
    Свадьба смотреть онлайн бесплатно в хорошем качестве


    Вы не можете начинать темы
    Вы не можете отвечать на сообщения
    Вы не можете редактировать свои сообщения
    Вы не можете удалять свои сообщения
    Вы не можете голосовать в опросах
    Вы не можете прикреплять файлы к сообщениям
    Вы можете скачивать файлы