Лицензия

30

iTunes

мы

iTunes

1

1 сезон

Чернобыль

1 сезон

Ральф против интернета

MVO

Покемон. Детектив Пикачу

8 сезон

Игра престолов

iTunes

1+1

ИГРА 18+

pack

ВАЖНО

!!Акция!!

Alien_RageХит недели

RePack

Resident Evil 21
pack

RePack

Metro:Exodus

!!Акция!!

Alien_Rage

RePack

fifa19

RePack

Assassins Creed: Odyssey

RePack

NEED FOR SPEED™ PAYBACK

3 сезон

9 сезон

Бесстыжие 9 сезон

Все сериалы

все сериалы на PB.wtf

RePack

FAR CRY 5
Ребята, катастрофически не хватает 2730р. для оплаты серверов за МАЙ (всвязи с блокировками трафик упал в 3 раза), 1-2р., выручайте.
  

Убийство в дачный сезон (Сергей Русаков) [2008 г., мелодрама, детектив, SATRip] piratbit.cc

Убийство в дачный сезон через торрент piratbit.cc

Размер: 1.37 GB | Добавлен: 2 года 4 мес. назад | Торрент скачан:22 раза
Скачать  

12-02-2017 10:33 Убийство в дачный сезон Скачать торрент  

Убийство в дачный сезон Год выпуска: 2008
Страна: Россия, Украина
Жанр: мелодрама, детектив
Продолжительность: 01:34:01
Субтитры: Отсутствуют

Режиссер: Сергей Русаков
Продюссер: Валентин Опалев, Влад Ряшин, Юрий Осипов
Сценарий: Сергей Русаков, Мария Шкатулова

+зрителям, достигшим 16 лет


В ролях: Екатерина Семенова, Владимир Капустин, Мария Звонарева, Александр Клюквин, Сергей Внуков, Олег Морозов, София Каштанова, Ольга Долинина, Владимир Денисов, Тимофей Трибунцев

Описание: Нина встречает в своем подъезде бомжа, жалеет его, подкармливает. Через некоторое время бомж находит себе работу и жилье: его нанимает охранять дачу старый приятель. Он уезжает за город, но обещает Нине обязательно приехать и поздравить ее с днем рождения. Нина ждет, но он не приезжает. А на следующий день Нина узнает, что бомж арестован за убийство жены своего приятеля фотографа. Она отказывается в это верить и начинает свое собственное расследование.

Качество: SATRip
Формат: AVI
Видео кодек: XviD
Аудио кодек: MP3
Видео: XviD ,720х416 ,1 882 kb/s,(4:2:0),25.000 FPS,8 bits
Аудио#1: MP3,192 kb/s, 2 ch, 48.0 KHz
скриншот  скриншот  скриншот  скриншот  скриншот  скриншот  скриншот  скриншот  

General
Complete name : C:\Users\Home\Desktop\rrtrtrtrtrttr6u6u547y66\Ubiystvo.v.dachnyi.sezon.2008.avi
Format : AVI
Format/Info : Audio Video Interleave
File size : 1.37 GiB
Duration : 1 h 34 min
Overall bit rate : 2 082 kb/s
Writing application : VirtualDubMod 1.5.4.1 (build 2178/release)
Writing library : VirtualDubMod build 2178/release

Video
ID : 0
Format : MPEG-4 Visual
Format profile : Advanced Simple@L5
Format settings, BVOP : No
Format settings, QPel : No
Format settings, GMC : No warppoints
Format settings, Matrix : Custom
Codec ID : XVID
Codec ID/Hint : XviD
Duration : 1 h 34 min
Bit rate : 1 882 kb/s
Width : 720 pixels
Height : 416 pixels
Display aspect ratio : 1.731
Frame rate : 25.000 FPS
Color space : YUV
Chroma subsampling : 4:2:0
Bit depth : 8 bits
Scan type : Progressive
Compression mode : Lossy
Bits/(Pixel*Frame) : 0.251
Stream size : 1.24 GiB (90%)
Writing library : XviD 64

Audio
ID : 1
Format : MPEG Audio
Format version : Version 1
Format profile : Layer 3
Mode : Joint stereo
Mode extension : MS Stereo
Codec ID : 55
Codec ID/Hint : MP3
Duration : 1 h 34 min
Bit rate mode : Constant
Bit rate : 192 kb/s
Channel(s) : 2 channels
Sampling rate : 48.0 kHz
Compression mode : Lossy
Stream size : 129 MiB (9%)
Alignment : Aligned on interleaves
Interleave, duration : 80 ms (2.00 video frames)
Interleave, preload duratio : 504 ms
Writing library : LAME3.98r
Encoding settings : -m j -V 4 -q 2 -lowpass 18.6 -b 192

piratbit.cc



Скачать Убийство в дачный сезон через торрент http://pic1.kartinco.top/images/11/ssour.jpg Скачать фильм Убийство в дачный сезон через торрент бесплантно в хорошем качестве Описание: Нина встречает в своем подъезде бомжа, жалеет его, подкармливает. Через некоторое время бомж находит себе работу и жилье: его ... 10 10 1
Торрент: Зарегистрирован [2017-02-12 10:33] · скачан: 22 раз
Статус: √ проверено
Размер: 1.37 GB
Как cкачать? Как скачать Убийство в дачный сезон через торрент | qTorrent


>> Регистрируемся здесь <<






Отзывы и комментарии о схеме читаем и пишем здесь: ---> Отзывы и комментарии о схеме

Новые благодарочки в телеграм довольных пользователей:
скриншот   скриншот   скриншот   скриншот   скриншот
    Дорогой пользователь! Огромная просьба, поблагодарите релизера, оцените раздачу и оставьте свои комментарий, если Вы скачали Убийство в дачный сезон через торрент бесплатно! Внесите свою лепту в развитие PiratBit!
    Комментировать посты могут только пользователи прошедшие не сложную регистрацию
    Показать сообщения:    

    Убийство в дачный сезон через торрент
    Скачать бесплатно Убийство в дачный сезон
    Убийство в дачный сезон скачать торрент
    Убийство в дачный сезон смотреть онлайн
    Cкачать фильм Убийство в дачный сезон бесплатно
    Убийство в дачный сезон скачать торрент в хорошем качестве
    Убийство в дачный сезон смотреть онлайн бесплатно в хорошем качестве


    Вы не можете начинать темы
    Вы не можете отвечать на сообщения
    Вы не можете редактировать свои сообщения
    Вы не можете удалять свои сообщения
    Вы не можете голосовать в опросах
    Вы не можете прикреплять файлы к сообщениям
    Вы можете скачивать файлы