Лицензия

30

iTunes

мы

iTunes

1

1 сезон

Чернобыль

iTunes

1+1

iTunes

Закатать в асфальт

8 сезон

Игра престолов

1 сезон

Ральф против интернета

ИГРА 18+

pack

ВАЖНО

!!Акция!!

Alien_RageХит недели

RePack

Resident Evil 21
pack

RePack

Metro:Exodus

!!Акция!!

Alien_Rage

RePack

fifa19

RePack

Assassins Creed: Odyssey

RePack

NEED FOR SPEED™ PAYBACK

3 сезон

9 сезон

Бесстыжие 9 сезон

Все сериалы

все сериалы на PB.wtf

RePack

FAR CRY 5
Ребята, катастрофически не хватает 2730р. для оплаты серверов за АПРЕЛЬ (всвязи с блокировками трафик упал в 3 раза), 1-2р., выручайте.
  

Грех. История страсти (Виктор Сергеев) [1993, Россия, драма, DVDRip от AVP Studio] piratbit.cc

Грех. История страсти через торрент piratbit.cc

Размер: 745 MB | Добавлен: 2 года назад | Торрент скачан:9 раз
Скачать  

23-05-2017 09:31 Грех. История страсти Скачать торрент  

Грех. История страсти
Страна: СССР
Производство: Никола-фильм

Жанр: драма
Год выпуска: 1993
Продолжительность: 01:48:55

Перевод: Не требуется
Cубтитры: нет
Оригинальная аудиодорожка: русский

Режиссер: Виктор Сергеев

В ролях:
Александр Абдулов, Ольга Понизова, Ольга Антонова, Борис Клюев, Владимир Сошальский, Константин Заклинский, Георгий Мартиросьян, Нина Русланова, Андрей Ургант, Валентин Никулин, Юлия Яковлева, Сергей Снежкин, Анатолий Шведерский, Александр Сластин, Александр Кириллов, Анна Твеленёва, Михаэла Эрхарт, Андрей Максимков, Светлана Столбова...
Об актёрах подробней

Описание:
Александр Абдулов сыграл в этом фильме необычного для русского кино героя - современного священника. Влюбленная в него Нина готова пойти на любые жертвы и ухищрения, чтобы добиться взаимности. Девушка не знает, что объект ее желания далек от идеала святости, а его прошлое отягощено преступлением.

Источник: DVD9 R5
Качество видео: DVDRip
Формат видео: AVI

Видео: 576x432 (4:3), 25 fps, XviD ~ 819 kbps avg, 0.132 bit/pixel
Аудио: 48 kHz, MP3 2.0, 128 kbps

Раздача от:
Общее
Полное имя : Greh.Istoriya.strasti.1993.DVDRip-745_[New-team]_by_AVP_Studio.avi
Формат : AVI
Формат/Информация : Audio Video Interleave
Размер файла : 745 Мбайт
Продолжительность : 1 ч. 48 м.
Общий поток : 956 Кбит/сек
Программа кодирования : VirtualDubMod 1.5.10.3 | www.virtualdub-fr.org || (build 2550/release)
Библиотека кодирования : VirtualDubMod build 2550/release

Видео
Идентификатор : 0
Формат : MPEG-4 Visual
Профиль формата : Advanced Simple@L5
Параметр BVOP формата : 1
Параметр QPel формата : Нет
Параметр GMC формата : Без точки перехода
Параметр матрицы формата : Выборочная
Идентификатор кодека : XVID
Идентификатор кодека/Подсказка : XviD
Продолжительность : 1 ч. 48 м.
Битрейт : 819 Кбит/сек
Ширина : 576 пикселей
Высота : 432 пикселя
Соотношение сторон : 4:3
Частота кадров : 25,000 кадров/сек
Цветовое пространство : YUV
Субдискретизация насыщенности : 4:2:0
Битовая глубина : 8 бит
Тип развёртки : Прогрессивная
Метод сжатия : С потерями
Бит/(Пиксели*Кадры) : 0.132
Размер потока : 638 Мбайт (86%)
Библиотека кодирования : XviD 73

Аудио
Идентификатор : 1
Формат : MPEG Audio
Версия формата : Version 1
Профиль формата : Layer 3
Идентификатор кодека : 55
Идентификатор кодека/Подсказка : MP3
Продолжительность : 1 ч. 48 м.
Вид битрейта : Постоянный
Битрейт : 128 Кбит/сек
Каналы : 2 канала
Частота : 48,0 КГц
Метод сжатия : С потерями
Размер потока : 99,7 Мбайт (13%)
Выравнивание : Соединение по промежуткам
Продолжительность промежутка : 40 мс. (1,00 видеокадр)
Время предзагрузки промежутка : 504 мс.
Библиотека кодирования : LAME3.99r
Настройки программы : -m s -V 4 -q 2 -lowpass 17 -b 128
piratbit.cc



Скачать Грех. История страсти через торрент http://i056.radikal.ru/1705/64/9fa0d18ca381.png Скачать фильм Грех. История страсти через торрент бесплантно в хорошем качестве Описание:Александр Абдулов сыграл в этом фильме необычного для русского кино героя - современного священника. Влюбленная в него Нина готова ... 5 10 1
Торрент: Зарегистрирован [2017-05-23 09:31] · скачан: 9 раз
Статус: √ проверено
Размер: 745 MB
Как cкачать? Как скачать Грех. История страсти через торрент | qTorrent

% Раздел Тема Автор DL S | L
Наши фильмы, до 2010 [ 703 MB ] Грех. История страсти [1993 Россия DVDRip] Sherif Скачать
1 | 1
Наши фильмы, до 2010 [ 1.46 GB ] Грех. История страсти [1993 Россия DVDRip-AVC от AVP Studio] AVP Studio Скачать
1 | 0
Наши фильмы, до 2010 [ 1.46 GB ] Грех. История страсти [1993 Россия DVDRip от AVP Studio] AVP Studio Скачать
1 | 0
Наши фильмы, до 2010 [ 1.71 GB ] Грех. История страсти [1993 DVDRip] шурка Скачать
1 | 0


>> Регистрируемся здесь <<






Отзывы и комментарии о схеме читаем и пишем здесь: ---> Отзывы и комментарии о схеме

Новые благодарочки в телеграм довольных пользователей:
скриншот   скриншот   скриншот   скриншот   скриншот
    Дорогой пользователь! Огромная просьба, поблагодарите релизера, оцените раздачу и оставьте свои комментарий, если Вы скачали Грех. История страсти через торрент бесплатно! Внесите свою лепту в развитие PiratBit!
    Комментировать посты могут только пользователи прошедшие не сложную регистрацию
    Показать сообщения:    

    Грех. История страсти через торрент
    Скачать бесплатно Грех. История страсти
    Грех. История страсти скачать торрент
    Грех. История страсти смотреть онлайн
    Cкачать фильм Грех. История страсти бесплатно
    Грех. История страсти скачать торрент в хорошем качестве
    Грех. История страсти смотреть онлайн бесплатно в хорошем качестве


    Вы не можете начинать темы
    Вы не можете отвечать на сообщения
    Вы не можете редактировать свои сообщения
    Вы не можете удалять свои сообщения
    Вы не можете голосовать в опросах
    Вы не можете прикреплять файлы к сообщениям
    Вы можете скачивать файлы