Лицензия

30

MVO

Как приручить дракона 3

11 сезон

1

1 сезон

гринч

iTunes

Стекло

iTunes

Клаустрофобы

8 сезон

Игра престолов

iTunes

Ральф против интернета Хит недели

ИГРА 18+

pack

ВАЖНО

!!Акция!!

Alien_RageХит недели

RePack

Resident Evil 21
pack

RePack

Metro:Exodus

!!Акция!!

Alien_Rage

RePack

fifa19

RePack

Assassins Creed: Odyssey

RePack

NEED FOR SPEED™ PAYBACK

3 сезон

9 сезон

Бесстыжие 9 сезон

Все сериалы

все сериалы на PB.wtf

RePack

FAR CRY 5
Ребята, критически не успеваем дособрать 3200р. для оплаты серверов за Март (всвязи с блокировками трафик упал в 3 раза), 1-2р., выручайте.
  

Грех. История страсти (Виктор Сергеев) [1993, Россия, драма, DVDRip-AVC от AVP Studio] piratbit.cc

Грех. История страсти через торрент piratbit.cc

Размер: 1.46 GB | Добавлен: 1 год 11 мес. назад | Торрент скачан:24 раза
Скачать  

23-05-2017 09:31 Грех. История страсти Скачать торрент  

Грех. История страсти
Страна: СССР
Производство: Никола-фильм

Жанр: драма
Год выпуска: 1993
Продолжительность: 01:48:55

Перевод: Не требуется
Cубтитры: нет
Оригинальная аудиодорожка: русский

Режиссер: Виктор Сергеев

В ролях:
Александр Абдулов, Ольга Понизова, Ольга Антонова, Борис Клюев, Владимир Сошальский, Константин Заклинский, Георгий Мартиросьян, Нина Русланова, Андрей Ургант, Валентин Никулин, Юлия Яковлева, Сергей Снежкин, Анатолий Шведерский, Александр Сластин, Александр Кириллов, Анна Твеленёва, Михаэла Эрхарт, Андрей Максимков, Светлана Столбова...
Об актёрах подробней

Описание:
Александр Абдулов сыграл в этом фильме необычного для русского кино героя - современного священника. Влюбленная в него Нина готова пойти на любые жертвы и ухищрения, чтобы добиться взаимности. Девушка не знает, что объект ее желания далек от идеала святости, а его прошлое отягощено преступлением.

Источник: DVD9 R5
Качество видео: DVDRip-AVC
Формат видео: MKV

Видео: 712->764x574 (4:3), 25 fps, H264 ~ 1467 kbps avg, 0.144 bit/pixel
Аудио: 48 kHz, Dolby Digital AC3 5.1, 448 kbps

Раздача от:
Общее
Полное имя : Greh.Istoriya.strasti.1993.DVDRip-AVC_[New-team]_by_AVP_Studio.mkv
Формат : Matroska
Версия формата : Version 2
Размер файла : 1,46 Гбайт
Продолжительность : 1 ч. 48 м.
Общий поток : 1917 Кбит/сек
Дата кодирования : UTC 2017-05-22 18:29:26
Программа кодирования : mkvmerge v6.1.0 ('Old Devil') built on Mar 4 2013 09:10:42
Библиотека кодирования : libebml v1.3.0 + libmatroska v1.4.0

Видео
Идентификатор : 1
Формат : AVC
Формат/Информация : Advanced Video Codec
Профиль формата : High@L4.1
Параметр CABAC формата : Да
Параметр ReFrames формата : 10 кадров
Идентификатор кодека : V_MPEG4/ISO/AVC
Продолжительность : 1 ч. 48 м.
Битрейт : 1467 Кбит/сек
Ширина : 712 пикселей
Высота : 574 пикселя
Соотношение сторон : 4:3
Режим частоты кадров : Постоянный
Частота кадров : 25,000 кадров/сек
Цветовое пространство : YUV
Субдискретизация насыщенности : 4:2:0
Битовая глубина : 8 бит
Тип развёртки : Прогрессивная
Бит/(Пиксели*Кадры) : 0.144
Размер потока : 1,09 Гбайт (75%)
Библиотека кодирования : x264 core 130 r2273 b3065e6
Настройки программы : cabac=1 / ref=10 / deblock=1:-2:-1 / analyse=0x3:0x113 / me=umh / subme=10 / psy=1 / psy_rd=1.00:0.00 / mixed_ref=1 / me_range=32 / chroma_me=1 / trellis=2 / 8x8dct=1 / cqm=0 / deadzone=21,11 / fast_pskip=1 / chroma_qp_offset=-2 / threads=6 / lookahead_threads=1 / sliced_threads=0 / nr=0 / decimate=0 / interlaced=0 / bluray_compat=0 / constrained_intra=0 / bframes=8 / b_pyramid=2 / b_adapt=2 / b_bias=0 / direct=3 / weightb=1 / open_gop=0 / weightp=2 / keyint=250 / keyint_min=25 / scenecut=40 / intra_refresh=0 / rc=2pass / mbtree=0 / bitrate=1467 / ratetol=1.0 / qcomp=0.60 / qpmin=0 / qpmax=69 / qpstep=4 / cplxblur=20.0 / qblur=0.5 / ip_ratio=1.40 / pb_ratio=1.30 / aq=1:1.00
Default : Да
Forced : Нет

Аудио
Идентификатор : 2
Формат : AC-3
Формат/Информация : Audio Coding 3
Параметр Endianness формата : Big
Идентификатор кодека : A_AC3
Продолжительность : 1 ч. 48 м.
Вид битрейта : Постоянный
Битрейт : 448 Кбит/сек
Каналы : 6 каналов
Расположение каналов : Front: L C R, Side: L R, LFE
Частота : 48,0 КГц
Частота кадров : 31,250 кадров/сек (1536 spf)
Битовая глубина : 16 бит
Метод сжатия : С потерями
Размер потока : 349 Мбайт (23%)
Default : Да
Forced : Нет
piratbit.cc



Скачать Грех. История страсти через торрент http://i056.radikal.ru/1705/64/9fa0d18ca381.png Скачать фильм Грех. История страсти через торрент бесплантно в хорошем качестве Описание:Александр Абдулов сыграл в этом фильме необычного для русского кино героя - современного священника. Влюбленная в него Нина готова ... 10 10 1
Info! Золотая раздача, скачанное не засчитывается.
Торрент: Зарегистрирован [2017-05-23 09:31] · скачан: 24 раз
Статус: √ проверено
Размер: 1.46 GB
Как cкачать? Как скачать Грех. История страсти через торрент | qTorrent

% Раздел Тема Автор DL S | L
Наши фильмы, до 2010 [ 703 MB ] Грех. История страсти [1993 Россия DVDRip] Sherif Скачать
1 | 0
Наши фильмы, до 2010 [ 745 MB ] Грех. История страсти [1993 Россия DVDRip от AVP Studio] AVP Studio Скачать
1 | 0
Наши фильмы, до 2010 [ 1.46 GB ] Грех. История страсти [1993 Россия DVDRip от AVP Studio] AVP Studio Скачать
2 | 0
Наши фильмы, до 2010 [ 1.71 GB ] Грех. История страсти [1993 DVDRip] шурка Скачать
1 | 0
Раскрываю секрет как замутить 6000р. без напряга и вложений

Чтобы получить бонус нужно перейти по --> ссылке и зарегистрироваться
Получаем бесплатный бонус 3000р от казино, ставим все на красное
С вероятностью 50% вы выигрываете
Выводим деньги, идем за айфоном!!!
Если не получилось регаемся еще раз и пробуем еще раз, Автоматы настроены так что каждый второй выигрывает!!!

Не ну, а чего попробовать то можно, Вы же ничего не теряете!!!

    Дорогой пользователь! Огромная просьба, поблагодарите релизера, оцените раздачу и оставьте свои комментарий, если Вы скачали Грех. История страсти через торрент бесплатно! Внесите свою лепту в развитие PiratBit!
    Комментировать посты могут только пользователи прошедшие не сложную регистрацию
    Показать сообщения:    

    Грех. История страсти через торрент
    Скачать бесплатно Грех. История страсти
    Грех. История страсти скачать торрент
    Грех. История страсти смотреть онлайн
    Cкачать фильм Грех. История страсти бесплатно
    Грех. История страсти скачать торрент в хорошем качестве
    Грех. История страсти смотреть онлайн бесплатно в хорошем качестве


    Вы не можете начинать темы
    Вы не можете отвечать на сообщения
    Вы не можете редактировать свои сообщения
    Вы не можете удалять свои сообщения
    Вы не можете голосовать в опросах
    Вы не можете прикреплять файлы к сообщениям
    Вы можете скачивать файлы