iTunes

1+1

iTunes

мы

iTunes

1

iTunes

Чернобыль

1 сезон

Ральф против интернета

Лицензия

ПШазам

Лицензия

Игра престолов

Лицензия

30
pack

ВАЖНО

!!Акция!!

Alien_RageХит недели

RePack

Resident Evil 21

ИГРА 18+

pack

RePack

Metro:Exodus

!!Акция!!

Alien_Rage

RePack

fifa19

RePack

Assassins Creed: Odyssey

RePack

NEED FOR SPEED™ PAYBACK

3 сезон

9 сезон

Бесстыжие 9 сезон

Все сериалы

все сериалы на PB.wtf

RePack

FAR CRY 5
Ребята, катастрофически не хватает 7730р. для оплаты серверов за ИЮЛЬ (всвязи с блокировками трафик упал в 3 раза), 1-2р., выручайте.
  

Ночной продавец (Валерий Рожнов) [2005 г., Комедия, триллер, DVDRip-AVC] от ExKinoRay piratbit.cc

Ночной продавец через торрент piratbit.cc

Размер: 1.52 GB | Добавлен: 2 года назад | Торрент скачан:96 раз
Скачать  

13-08-2017 11:54 Ночной продавец Скачать торрент  

Ночной продавец
Год выпуска: 2005
Страна: Россия
Жанр: Комедия, триллер
Продолжительность: 01:25:05
Перевод: Не требуется Русский

Режиссер: Валерий Рожнов

Премьера в мире: 20 января 2005

rating

В ролях: Павел Баршак, Виктор Сухоруков, Ингеборга Дапкунайте, Андрей Краско, Вячеслав Разбегаев, Андрей Мерзликин, Константин Мурзенко, Спартак Мишулин

Описание: В городе орудует Маньяк. Его время — ночь. Его любимая погода — дождь. Именно после таких ночей в городе находили его жертвы. И именно в такую ночь подрабатывающий Студент заступает на смену в круглосуточный магазин. В эту же ночь его Босс отправляется играть в казино, а Жена босса решает поразвлечься. В эту же ночь Сыщик ожидает новую жертву. Потому что на ночном небе сверкают грозовые молнии и… Маньяк уже вышел на охоту!

Качество: DVDRip-AVC
Формат: MKV
Видео кодек: MPEG4
Аудио кодек: AC3
Видео: MPEG-4 AVC, 2100 Кбит/с, 716x554@1018x554, 25 кадров/сек
Аудио#1: AC3, 6 ch, 448 Кбит/с, 48 Кгц
Релиз от:




raw [info]: 716x554p 64:45 @ 25/1 fps (cfr)
x264 [info]: using SAR=64/45
x264 [info]: using cpu capabilities: MMX2 SSE2Fast LZCNT
x264 [info]: profile High, level 4.1
x264 [info]: frame I:910 Avg QP:15.95 size: 64626
x264 [info]: frame P:26009 Avg QP:18.50 size: 22633
x264 [info]: frame B:100721 Avg QP:19.74 size: 6878
x264 [info]: consecutive B-frames: 1.6% 2.4% 6.2% 14.5% 13.4% 51.0% 6.5% 1.8% 1.3% 0.4% 0.4% 0.3% 0.1% 0.1% 0.0% 0.0% 0.1%
-----
Общее
Уникальный идентификатор : 225533082664167162492664304638045259607 (0xA9AC177BF6BE6B95B8E908F151C50757)
Полное имя : D:\Relizes\Nochnoi.Prodavec.2005.DVDRip-AVC.ExKinoRay.mkv
Формат : Matroska
Версия формата : Version 2
Размер файла : 1,52 Гбайт
Продолжительность : 1 ч. 25 м.
Общий поток : 2550 Кбит/сек
Дата кодирования : UTC 2017-08-13 09:40:42
Программа кодирования : mkvmerge v7.8.0 ('River Man') 32bit built on Apr 3 2015 12:11:22
Библиотека кодирования : libebml v1.3.1 + libmatroska v1.4.2

Видео
Идентификатор : 1
Формат : AVC
Формат/Информация : Advanced Video Codec
Профиль формата : High@L4.1
Параметр CABAC формата : Да
Параметр ReFrames формата : 14 кадров
Идентификатор кодека : V_MPEG4/ISO/AVC
Продолжительность : 1 ч. 25 м.
Битрейт : 2100 Кбит/сек
Ширина : 716 пикселей
Высота : 554 пикселя
Соотношение сторон : 1,85:1
Режим частоты кадров : Постоянный
Частота кадров : 25,000 кадров/сек
Цветовое пространство : YUV
Субдискретизация насыщенности : 4:2:0
Битовая глубина : 8 бит
Тип развёртки : Прогрессивная
Бит/(Пиксели*Кадры) : 0.212
Размер потока : 1,22 Гбайт (80%)
Библиотека кодирования : x264 core 148 r2638 7599210
Настройки программы : cabac=1 / ref=14 / deblock=1:-2:-2 / analyse=0x3:0x133 / me=umh / subme=10 / psy=1 / psy_rd=1.05:0.15 / mixed_ref=1 / me_range=32 / chroma_me=1 / trellis=2 / 8x8dct=1 / cqm=0 / deadzone=21,11 / fast_pskip=0 / chroma_qp_offset=-3 / threads=4 / lookahead_threads=1 / sliced_threads=0 / nr=0 / decimate=0 / interlaced=0 / bluray_compat=0 / constrained_intra=0 / bframes=16 / b_pyramid=2 / b_adapt=2 / b_bias=0 / direct=3 / weightb=1 / open_gop=0 / weightp=2 / keyint=250 / keyint_min=25 / scenecut=40 / intra_refresh=0 / rc=2pass / mbtree=0 / bitrate=2100 / ratetol=1.0 / qcomp=0.60 / qpmin=0 / qpmax=69 / qpstep=4 / cplxblur=20.0 / qblur=0.5 / ip_ratio=1.40 / pb_ratio=1.30 / aq=1:1.00
Язык : English
Default : Да
Forced : Нет
Цветовой диапазон : Limited
Основные цвета : BT.601 NTSC
Характеристики трансфера : BT.601
Коэффициенты матрицы : BT.601

Аудио
Идентификатор : 2
Формат : AC-3
Формат/Информация : Audio Coding 3
Расширение режима : CM (complete main)
Параметр Endianness формата : Big
Идентификатор кодека : A_AC3
Продолжительность : 1 ч. 25 м.
Вид битрейта : Постоянный
Битрейт : 448 Кбит/сек
Каналы : 6 каналов
Расположение каналов : Front: L C R, Side: L R, LFE
Частота : 48,0 КГц
Частота кадров : 31,250 кадров/сек (1536 spf)
Метод сжатия : С потерями
Размер потока : 273 Мбайт (18%)
Default : Да
Forced : Нет

piratbit.cc



Скачать Ночной продавец через торрент http://s41.radikal.ru/i091/1708/72/1e5dcc9c1c8a.jpg Скачать фильм Ночной продавец через торрент бесплантно в хорошем качестве Описание: В городе орудует Маньяк. Его время — ночь. Его любимая погода — дождь. Именно после таких ночей в городе находили его жертвы. И ... 8.6 10 5
Info! Золотая раздача, скачанное не засчитывается.
Торрент: Зарегистрирован [2017-08-13 11:54] · скачан: 96 раз
Статус: √ проверено
Размер: 1.52 GB
Как cкачать? Как скачать Ночной продавец через торрент | qTorrent


>> Регистрируемся здесь <<






Отзывы и комментарии о схеме читаем и пишем здесь: ---> Отзывы и комментарии о схеме

Новые благодарочки в телеграм довольных пользователей:
скриншот   скриншот   скриншот   скриншот   скриншот

13-08-2017 13:00 Ночной продавец Скачать торрент  

Топик был перенесен из форума Оформление раздач (Кино, Видео и ТВ) в форум Наши фильмы, до 2010


-Lexx-piratbit.cc



13-08-2017 20:42 Ночной продавец Скачать торрент  

Фильм странный. Жанр конечно обязывает. Комедии не увидел, даже чёрной. Но что поразило - это больные и пораженные зубным камнем зубы моего некогда любимого актера Краско, - которые камера очень часто демонстрирует, причем иногда крупным планом. Фу... из за этого противно смотреть. Человек вроде не бедный был, неужели нельзя было зубки полечить.piratbit.cc



15-08-2017 18:05 Ночной продавец Скачать торрент  

Есть фильмы привязанные ко времени создания. В момент своего появления они интересны. А потом не очень. По-моему это как раз такой фильм. Можно посмотреть из-за хороших артистов. А можно и не смотреть, ничего не потеряешь. Вот такое кино. Качество очень хорошее, спасибо автору раздачи.piratbit.cc



    Дорогой пользователь! Огромная просьба, поблагодарите релизера, оцените раздачу и оставьте свои комментарий, если Вы скачали Ночной продавец через торрент бесплатно! Внесите свою лепту в развитие PiratBit!
    Комментировать посты могут только пользователи прошедшие не сложную регистрацию
    Показать сообщения:    

    Ночной продавец через торрент
    Скачать бесплатно Ночной продавец
    Ночной продавец скачать торрент
    Ночной продавец смотреть онлайн
    Cкачать фильм Ночной продавец бесплатно
    Ночной продавец скачать торрент в хорошем качестве
    Ночной продавец смотреть онлайн бесплатно в хорошем качестве


    Вы не можете начинать темы
    Вы не можете отвечать на сообщения
    Вы не можете редактировать свои сообщения
    Вы не можете удалять свои сообщения
    Вы не можете голосовать в опросах
    Вы не можете прикреплять файлы к сообщениям
    Вы можете скачивать файлы