Лицензия

30

iTunes

Как приручить дракона 3

11 сезон

1

1 сезон

гринч

iTunes

Стекло

iTunes

Клаустрофобы

8 сезон

Игра престолов

iTunes

Ральф против интернета Хит недели

ИГРА 18+

pack

ВАЖНО

!!Акция!!

Alien_RageХит недели

RePack

Resident Evil 21
pack

RePack

Metro:Exodus

!!Акция!!

Alien_Rage

RePack

fifa19

RePack

Assassins Creed: Odyssey

RePack

NEED FOR SPEED™ PAYBACK

3 сезон

9 сезон

Бесстыжие 9 сезон

Все сериалы

все сериалы на PB.wtf

RePack

FAR CRY 5
Ребята, критически не успеваем дособрать 3200р. для оплаты серверов за Март (всвязи с блокировками трафик упал в 3 раза), 1-2р., выручайте.
  

Ночные сестры (Алексей Мурадов) [2007 г., Комедия, мелодрама, DVDRip-AVC, Не требуется Русский] от ExKinoRay piratbit.cc

Ночные сестры через торрент piratbit.cc

Размер: 2.04 GB | Добавлен: 1 год 8 мес. назад | Торрент скачан:94 раза
Скачать  

19-08-2017 18:33 Ночные сестры Скачать торрент  

Ночные сестры
Год выпуска: 2007
Страна: Россия
Жанр: Комедия, мелодрама
Продолжительность: 01:35:07
Перевод: Не требуется Русский

Режиссер: Алексей Мурадов

Премьера в мире: 29 ноября 2007

rating

В ролях: Алексей Макаров, Василий Брыков, Ксения Зайцева, Максим Коновалов, Ольга Ломоносова, Артём Мазунов, Татьяна Мазур, Ангелина Миримская, Елена Подкаминская, Дарья Сагалова, Даниил Спиваковский, Евгений Стычкин

Описание: Из «Мерседеса» с московскими номерами, потерпевшего аварию недалеко от провинциального пансионата, сюда доставляют Кирилла Шнека — молодого, красивого «помощника советника Президента РФ», как написано в его удостоверении. Ночная смена, принявшая потерпевшего, в составе врача Ларисы и медсестер Веры, Марины и Любаши, сразу задумывается о шансе, выпавшем, возможно, на долю кого-то из них — молодых, красивых, но неустроенных женщин. Пришедший в себя после легкого сотрясения мозга, «больной» сразу повел себя по-хозяйски: самоуверенно до наглости, панибратски до хамства. Он предложил каждой «свои услуги». Очень трудно молодым женщинам устоять перед искушением…

Качество: DVDRip-AVC
Формат: MKV
Видео кодек: MPEG4
Аудио кодек: AC3
Видео: MPEG-4 AVC, 2500 Кбит/с, 708x546@1006x546, 25 кадров/сек
Аудио#1: AC3, 6 ch, 384 Кбит/с, 48 КГц
Аудио#2: AC3, 2 ch, 192 Кбит/с, 48 КГц
Релиз от:




raw [info]: 708x546p 64:45 @ 25/1 fps (cfr)
x264 [info]: using SAR=64/45
x264 [info]: using cpu capabilities: MMX2 SSE2Fast LZCNT
x264 [info]: profile High, level 4.1
x264 [info]: frame I:951 Avg QP:16.63 size: 63021
x264 [info]: frame P:31860 Avg QP:19.33 size: 24690
x264 [info]: frame B:109879 Avg QP:20.81 size: 8520
x264 [info]: consecutive B-frames: 2.1% 3.2% 8.9% 21.0% 13.7% 46.3% 3.2% 0.7% 0.5% 0.1% 0.1% 0.2% 0.0% 0.0% 0.0% 0.0% 0.0%
-----
Общее
Уникальный идентификатор : 241098086250346802541521090563792599457 (0xB561CD6910649140B38B81E3383E79A1)
Полное имя : D:\Relizes\HO4H61E.CECTP61.2007.DVDRip-AVC.ExKinoRay.mkv
Формат : Matroska
Версия формата : Version 2
Размер файла : 2,04 Гбайт
Продолжительность : 1 ч. 35 м.
Общий поток : 3077 Кбит/сек
Дата кодирования : UTC 2017-08-19 15:55:46
Программа кодирования : mkvmerge v7.8.0 ('River Man') 32bit built on Apr 3 2015 12:11:22
Библиотека кодирования : libebml v1.3.1 + libmatroska v1.4.2

Видео
Идентификатор : 1
Формат : AVC
Формат/Информация : Advanced Video Codec
Профиль формата : High@L4.1
Параметр CABAC формата : Да
Параметр ReFrames формата : 14 кадров
Идентификатор кодека : V_MPEG4/ISO/AVC
Продолжительность : 1 ч. 35 м.
Битрейт : 2500 Кбит/сек
Ширина : 708 пикселей
Высота : 546 пикселей
Соотношение сторон : 1,85:1
Соотношение сторон в оригинале : 1,85:1
Режим частоты кадров : Постоянный
Частота кадров : 25,000 кадров/сек
Цветовое пространство : YUV
Субдискретизация насыщенности : 4:2:0
Битовая глубина : 8 бит
Тип развёртки : Прогрессивная
Бит/(Пиксели*Кадры) : 0.259
Размер потока : 1,62 Гбайт (79%)
Библиотека кодирования : x264 core 148 r2638 7599210
Настройки программы : cabac=1 / ref=14 / deblock=1:-2:-2 / analyse=0x3:0x133 / me=umh / subme=10 / psy=1 / psy_rd=1.05:0.15 / mixed_ref=1 / me_range=32 / chroma_me=1 / trellis=2 / 8x8dct=1 / cqm=0 / deadzone=21,11 / fast_pskip=0 / chroma_qp_offset=-3 / threads=4 / lookahead_threads=1 / sliced_threads=0 / nr=0 / decimate=0 / interlaced=0 / bluray_compat=0 / constrained_intra=0 / bframes=16 / b_pyramid=2 / b_adapt=2 / b_bias=0 / direct=3 / weightb=1 / open_gop=0 / weightp=2 / keyint=250 / keyint_min=25 / scenecut=40 / intra_refresh=0 / rc=2pass / mbtree=0 / bitrate=2500 / ratetol=1.0 / qcomp=0.60 / qpmin=0 / qpmax=69 / qpstep=4 / cplxblur=20.0 / qblur=0.5 / ip_ratio=1.40 / pb_ratio=1.30 / aq=1:1.00
Язык : English
Default : Да
Forced : Нет
Цветовой диапазон : Limited
Основные цвета : BT.601 NTSC
Характеристики трансфера : BT.601
Коэффициенты матрицы : BT.601

Аудио #1
Идентификатор : 2
Формат : AC-3
Формат/Информация : Audio Coding 3
Расширение режима : CM (complete main)
Параметр Endianness формата : Big
Идентификатор кодека : A_AC3
Продолжительность : 1 ч. 35 м.
Вид битрейта : Постоянный
Битрейт : 384 Кбит/сек
Каналы : 6 каналов
Расположение каналов : Front: L C R, Side: L R, LFE
Частота : 48,0 КГц
Частота кадров : 31,250 кадров/сек (1536 spf)
Метод сжатия : С потерями
Размер потока : 261 Мбайт (12%)
Default : Да
Forced : Нет

Аудио #2
Идентификатор : 3
Формат : AC-3
Формат/Информация : Audio Coding 3
Расширение режима : CM (complete main)
Параметр Endianness формата : Big
Идентификатор кодека : A_AC3
Продолжительность : 1 ч. 35 м.
Вид битрейта : Постоянный
Битрейт : 192 Кбит/сек
Каналы : 2 канала
Расположение каналов : Front: L R
Частота : 48,0 КГц
Частота кадров : 31,250 кадров/сек (1536 spf)
Метод сжатия : С потерями
Размер потока : 131 Мбайт (6%)
Default : Нет
Forced : Нет

piratbit.cc



Скачать Ночные сестры через торрент http://s011.radikal.ru/i318/1708/0f/73c72500be26.jpg Скачать фильм Ночные сестры через торрент бесплантно в хорошем качестве Описание: Из «Мерседеса» с московскими номерами, потерпевшего аварию недалеко от провинциального пансионата, сюда доставляют Кирилла Шнека ... 10 10 2
Info! Золотая раздача, скачанное не засчитывается.
Торрент: Зарегистрирован [2017-08-19 18:33] · скачан: 94 раз
Статус: √ проверено
Размер: 2.04 GB
Как cкачать? Как скачать Ночные сестры через торрент | qTorrent


>> Регистрируемся здесь <<






Отзывы и комментарии о схеме читаем и пишем здесь: ---> Отзывы и комментарии о схеме

Новые благодарочки в телеграм довольных пользователей:
скриншот   скриншот   скриншот   скриншот   скриншот

19-08-2017 18:40 Ночные сестры Скачать торрент  

все хвалят в комментариях.надо забирать.спасибо.piratbit.cc



19-08-2017 19:10 Ночные сестры Скачать торрент  

что там хвалить- сериальный тип , быдло-депутат и .....
про золушку корочеpiratbit.cc



20-08-2017 02:32 Ночные сестры Скачать торрент  

Топик был перенесен из форума Оформление раздач (Кино, Видео и ТВ) в форум Наши фильмы, до 2010


Enigma2010piratbit.cc



22-08-2017 14:00 Ночные сестры Скачать торрент  

SASHA66 писал(а):

все хвалят в комментариях.надо забирать.спасибо.

Фильм Ночной продавец (искать здесь) смотрел когда-то давно
Засыпая после ночной смены
Ночные сестры?
Думал это совсем другой российский фильм на эту тему тех времен
Оказалось, это другой, более веселый и добрый фильм
Качайте, друзья, и в 2000-х умели нормальные добрые комедии делатьpiratbit.cc



    Дорогой пользователь! Огромная просьба, поблагодарите релизера, оцените раздачу и оставьте свои комментарий, если Вы скачали Ночные сестры через торрент бесплатно! Внесите свою лепту в развитие PiratBit!
    Комментировать посты могут только пользователи прошедшие не сложную регистрацию
    Показать сообщения:    

    Ночные сестры через торрент
    Скачать бесплатно Ночные сестры
    Ночные сестры скачать торрент
    Ночные сестры смотреть онлайн
    Cкачать фильм Ночные сестры бесплатно
    Ночные сестры скачать торрент в хорошем качестве
    Ночные сестры смотреть онлайн бесплатно в хорошем качестве


    Вы не можете начинать темы
    Вы не можете отвечать на сообщения
    Вы не можете редактировать свои сообщения
    Вы не можете удалять свои сообщения
    Вы не можете голосовать в опросах
    Вы не можете прикреплять файлы к сообщениям
    Вы можете скачивать файлы