iTunes

1+1

iTunes

мы

iTunes

1

iTunes

Чернобыль

1 сезон

Ральф против интернета

Лицензия

ПШазам

Лицензия

Игра престолов

Лицензия

30
pack

ВАЖНО

!!Акция!!

Alien_RageХит недели

RePack

Resident Evil 21

ИГРА 18+

pack

RePack

Metro:Exodus

!!Акция!!

Alien_Rage

RePack

fifa19

RePack

Assassins Creed: Odyssey

RePack

NEED FOR SPEED™ PAYBACK

3 сезон

9 сезон

Бесстыжие 9 сезон

Все сериалы

все сериалы на PB.wtf

RePack

FAR CRY 5
Ребята, катастрофически не хватает 7730р. для оплаты серверов за ИЮЛЬ (всвязи с блокировками трафик упал в 3 раза), 1-2р., выручайте.
  

Игра (Александр Рогожкин) [2008 г., Комедия, спорт, DVDRip-AVC, Не требуется Русский] от ExKinoRay piratbit.cc

Игра через торрент piratbit.cc

Размер: 1.97 GB | Добавлен: 1 год 11 мес. назад | Торрент скачан:24 раза
Скачать  

10-09-2017 03:18 Игра Скачать торрент  

Игра
Год выпуска: 2008
Страна: Россия
Жанр: Комедия, спорт
Продолжительность: 01:32:36
Перевод: Не требуется Русский

Режиссер: Александр Рогожкин

Премьера в мире: 29 мая 2008

rating

В ролях: Алексей Булдаков, Даниил Страхов, Юрий Степанов, Кирилл Пирогов, Александр Лымарев, Артур Ваха, Любовь Львова, Виктор Бабич, Артем Волобуев, Павел Горожанкин

Описание: Россия получает право проводить чемпионат мира по футболу у себя дома. И совсем неожиданно сборная проходит в финал.

Качество: DVDRip-AVC
Формат: MKV
Видео кодек: MPEG4
Аудио кодек: AC3
Видео: MPEG-4 AVC, 2600 Кбит/с, 720x544@1024x544, 25 кадров/сек
Аудио#1: AC3, 6 ch, 448 Кбит/с, 48 Кгц
Релиз от:




raw [info]: 720x544p 64:45 @ 25/1 fps (cfr)
x264 [info]: using SAR=64/45
x264 [info]: using cpu capabilities: MMX2 SSE2Fast LZCNT
x264 [info]: profile High, level 4.1
x264 [info]: frame I:1020 Avg QP:15.97 size: 49573
x264 [info]: frame P:38030 Avg QP:18.48 size: 25205
x264 [info]: frame B:99857 Avg QP:20.02 size: 7955
x264 [info]: consecutive B-frames: 2.6% 11.0% 2.1% 67.9% 3.6% 0.5% 1.0% 10.0% 0.0% 0.0% 0.1% 0.3% 0.0% 0.5% 0.3% 0.0% 0.1%
-----
Общее
Уникальный идентификатор : 252734781412028601754073362891168619764 (0xBE22F2C720E15F199111EFE811F51CF4)
Полное имя : D:\Relizes\Igra.2008.DVDRip-AVC.ExKinoRay.mkv
Формат : Matroska
Версия формата : Version 2
Размер файла : 1,97 Гбайт
Продолжительность : 1 ч. 32 м.
Общий поток : 3046 Кбит/сек
Дата кодирования : UTC 2017-09-10 01:03:03
Программа кодирования : mkvmerge v7.8.0 ('River Man') 32bit built on Apr 3 2015 12:11:22
Библиотека кодирования : libebml v1.3.1 + libmatroska v1.4.2

Видео
Идентификатор : 1
Формат : AVC
Формат/Информация : Advanced Video Codec
Профиль формата : High@L4.1
Параметр CABAC формата : Да
Параметр ReFrames формата : 14 кадров
Идентификатор кодека : V_MPEG4/ISO/AVC
Продолжительность : 1 ч. 32 м.
Битрейт : 2600 Кбит/сек
Ширина : 720 пикселей
Высота : 544 пикселя
Соотношение сторон : 1,882
Режим частоты кадров : Постоянный
Частота кадров : 25,000 кадров/сек
Цветовое пространство : YUV
Субдискретизация насыщенности : 4:2:0
Битовая глубина : 8 бит
Тип развёртки : Прогрессивная
Бит/(Пиксели*Кадры) : 0.266
Размер потока : 1,64 Гбайт (83%)
Библиотека кодирования : x264 core 148 r2638 7599210
Настройки программы : cabac=1 / ref=14 / deblock=1:-2:-2 / analyse=0x3:0x133 / me=umh / subme=10 / psy=1 / psy_rd=1.05:0.15 / mixed_ref=1 / me_range=32 / chroma_me=1 / trellis=2 / 8x8dct=1 / cqm=0 / deadzone=21,11 / fast_pskip=0 / chroma_qp_offset=-3 / threads=4 / lookahead_threads=1 / sliced_threads=0 / nr=0 / decimate=0 / interlaced=0 / bluray_compat=0 / constrained_intra=0 / bframes=16 / b_pyramid=2 / b_adapt=2 / b_bias=0 / direct=3 / weightb=1 / open_gop=0 / weightp=2 / keyint=250 / keyint_min=25 / scenecut=40 / intra_refresh=0 / rc=2pass / mbtree=0 / bitrate=2600 / ratetol=1.0 / qcomp=0.60 / qpmin=0 / qpmax=69 / qpstep=4 / cplxblur=20.0 / qblur=0.5 / ip_ratio=1.40 / pb_ratio=1.30 / aq=1:1.00
Язык : English
Default : Да
Forced : Нет
Цветовой диапазон : Limited
Основные цвета : BT.601 NTSC
Характеристики трансфера : BT.601
Коэффициенты матрицы : BT.601

Аудио
Идентификатор : 2
Формат : AC-3
Формат/Информация : Audio Coding 3
Расширение режима : CM (complete main)
Параметр Endianness формата : Big
Идентификатор кодека : A_AC3
Продолжительность : 1 ч. 32 м.
Вид битрейта : Постоянный
Битрейт : 448 Кбит/сек
Каналы : 6 каналов
Расположение каналов : Front: L C R, Side: L R, LFE
Частота : 48,0 КГц
Частота кадров : 31,250 кадров/сек (1536 spf)
Метод сжатия : С потерями
Размер потока : 297 Мбайт (15%)
Default : Да
Forced : Нет

piratbit.cc



Скачать Игра через торрент http://s020.radikal.ru/i707/1506/be/037f6064f0f6.jpg Скачать фильм Игра через торрент бесплантно в хорошем качестве Описание: Россия получает право проводить чемпионат мира по футболу у себя дома. И совсем неожиданно сборная проходит в ... 10 10 2
Info! Золотая раздача, скачанное не засчитывается.
Торрент: Зарегистрирован [2017-09-10 03:18] · скачан: 24 раз
Статус: √ проверено
Размер: 1.97 GB
Как cкачать? Как скачать Игра через торрент | qTorrent

% Раздел Тема Автор DL S | L
Наши фильмы (Blu-ray, BD-Remux, HDDVD) [ 17.93 GB ] Мафия: Игра на выживание [2015 BDRemux 1080p] от ExKinoRay / Russian Mafia Скачать
1 | 0
Классика зарубежного кино [ 2.39 GB ] Эмигрант / L'emigrante [1973 DVDRip-AVC ] от ExKinoRay dumbia Скачать
1 | 0
Классика зарубежного кино [ 2.86 GB ] Красивый честный эмигрант в Австралии хотел бы жениться на девушке-соотечественнице / Bello onesto emigrato Australia sposerebbe compaesana illibata [1971 DVDRip-AVC ] от ExKinoRay dumbia Скачать
1 | 0
Фильмы до 2000 г. [ 2.02 GB ] Попался или Шпионские игры / Gotcha! [1985 DVDRip-AVC ] от ExKinoRay dumbia Скачать
1 | 0
Фильмы (Blu-ray, BD-Remux, HDDVD) [ 29.17 GB ] Игра на понижение / The Big Short [2015 биография BDRemux 1080p] от ExKinoRay / AVO Russian Mafia Скачать
1 | 0


>> Регистрируемся здесь <<






Отзывы и комментарии о схеме читаем и пишем здесь: ---> Отзывы и комментарии о схеме

Новые благодарочки в телеграм довольных пользователей:
скриншот   скриншот   скриншот   скриншот   скриншот

10-09-2017 03:51 Игра Скачать торрент  

Топик был перенесен из форума Оформление раздач (Кино, Видео и ТВ) в форум Наши фильмы, до 2010


Enigma2010piratbit.cc



    Дорогой пользователь! Огромная просьба, поблагодарите релизера, оцените раздачу и оставьте свои комментарий, если Вы скачали Игра через торрент бесплатно! Внесите свою лепту в развитие PiratBit!
    Комментировать посты могут только пользователи прошедшие не сложную регистрацию
    Показать сообщения:    

    Игра через торрент
    Скачать бесплатно Игра
    Игра скачать торрент
    Игра смотреть онлайн
    Cкачать фильм Игра бесплатно
    Игра скачать торрент в хорошем качестве
    Игра смотреть онлайн бесплатно в хорошем качестве


    Вы не можете начинать темы
    Вы не можете отвечать на сообщения
    Вы не можете редактировать свои сообщения
    Вы не можете удалять свои сообщения
    Вы не можете голосовать в опросах
    Вы не можете прикреплять файлы к сообщениям
    Вы можете скачивать файлы