Лицензия

30

iTunes

мы

iTunes

1

1 сезон

Чернобыль

1 сезон

Ральф против интернета

MVO

Покемон. Детектив Пикачу

8 сезон

Игра престолов

iTunes

1+1

ИГРА 18+

pack

ВАЖНО

!!Акция!!

Alien_RageХит недели

RePack

Resident Evil 21
pack

RePack

Metro:Exodus

!!Акция!!

Alien_Rage

RePack

fifa19

RePack

Assassins Creed: Odyssey

RePack

NEED FOR SPEED™ PAYBACK

3 сезон

9 сезон

Бесстыжие 9 сезон

Все сериалы

все сериалы на PB.wtf

RePack

FAR CRY 5
Ребята, катастрофически не хватает 2730р. для оплаты серверов за МАЙ (всвязи с блокировками трафик упал в 3 раза), 1-2р., выручайте.
  

Сумасшедший день (Александр Замятин) [2005 г., Комедия, DVDRip-AVC, Не требуется Русский] от ExKinoRay piratbit.cc

Сумасшедший день через торрент piratbit.cc

Размер: 1.71 GB | Добавлен: 1 год 9 мес. назад | Торрент скачан:17 раз
Скачать  

10-09-2017 17:39 Сумасшедший день Скачать торрент  

Сумасшедший день
Год выпуска: 2005
Страна: Россия
Жанр: Комедия
Продолжительность: 01:24:26
Перевод: Не требуется Русский

Режиссер: Александр Замятин

Премьера в мире: 3 сентября 2009



В ролях: Валентин Смирнитский, Ян Цапник, Дмитрий Харатьян, Роман Мадянов, Виталий Грачев, Иван Моховиков, Александр Леньков, Виталий Альшанский, Вадим Андреев, Дарья Повереннова, Юлия Майборода, Артём Мазунов, Анатолий Шаляпин, Оксана Сташенко, Иван Витер, Денис Курышев, Александр Числов, Игорь Серебряный

Описание: Директор и режисcер фильма, получив на съемки комедийного сериала со звездами вместо обещанного супербюджета весьма скудные средства, начинают ломать голову, как им выпутаться из этой сложной ситуации. Им удается заманить на съемочную площадку популярного артиста Влада, вместо каскадера — водителя грузовика, вместо антилопы Гну — загримированного козла Снежка. Но ничего хорошего из этого не получается, так как отсутствие съемочного профессианализма подводит. Положение кажется безвыходным, но тут в Ялту нагрянул с концертом популярный певец Ляпа Отвязный.

Качество: DVDRip-AVC
Формат: MKV
Видео кодек: MPEG4
Аудио кодек: AC3
Видео: MPEG-4 AVC, 2700 Кбит/с, 702x414@748x414, 25 кадров/сек
Аудио#1: AC3, 2 ch, 192 Кбит/с, 48 КГц
Релиз от:




raw [info]: 702x414p 16:15 @ 25/1 fps (cfr)
x264 [info]: using SAR=16/15
x264 [info]: using cpu capabilities: MMX2 SSE2Fast LZCNT
x264 [info]: profile High, level 4.1
x264 [info]: frame I:1014 Avg QP:16.37 size: 61841
x264 [info]: frame P:28150 Avg QP:18.61 size: 26190
x264 [info]: frame B:97489 Avg QP:20.01 size: 9334
x264 [info]: consecutive B-frames: 2.1% 2.5% 8.7% 24.6% 13.8% 44.8% 2.1% 0.5% 0.3% 0.1% 0.1% 0.1% 0.1% 0.0% 0.0% 0.1% 0.2%
-----
Общее
Уникальный идентификатор : 242378776345213561374930061408503776958 (0xB658744E9FEF0C4F92A442C166E2C6BE)
Полное имя : D:\Relizes\Mad.Day.2005.DVDRip-AVC.ExKinoRay.mkv
Формат : Matroska
Версия формата : Version 2
Размер файла : 1,71 Гбайт
Продолжительность : 1 ч. 24 м.
Общий поток : 2894 Кбит/сек
Дата кодирования : UTC 2017-09-10 15:18:24
Программа кодирования : mkvmerge v7.8.0 ('River Man') 32bit built on Apr 3 2015 12:11:22
Библиотека кодирования : libebml v1.3.1 + libmatroska v1.4.2

Видео
Идентификатор : 1
Формат : AVC
Формат/Информация : Advanced Video Codec
Профиль формата : High@L4.1
Параметр CABAC формата : Да
Параметр ReFrames формата : 14 кадров
Идентификатор кодека : V_MPEG4/ISO/AVC
Продолжительность : 1 ч. 24 м.
Битрейт : 2700 Кбит/сек
Ширина : 702 пикселя
Высота : 414 пикселей
Соотношение сторон : 16:9
Соотношение сторон в оригинале : 16:9
Режим частоты кадров : Постоянный
Частота кадров : 25,000 кадров/сек
Цветовое пространство : YUV
Субдискретизация насыщенности : 4:2:0
Битовая глубина : 8 бит
Тип развёртки : Прогрессивная
Бит/(Пиксели*Кадры) : 0.372
Размер потока : 1,56 Гбайт (91%)
Библиотека кодирования : x264 core 148 r2638 7599210
Настройки программы : cabac=1 / ref=14 / deblock=1:-2:-2 / analyse=0x3:0x133 / me=umh / subme=10 / psy=1 / psy_rd=1.05:0.15 / mixed_ref=1 / me_range=32 / chroma_me=1 / trellis=2 / 8x8dct=1 / cqm=0 / deadzone=21,11 / fast_pskip=0 / chroma_qp_offset=-3 / threads=4 / lookahead_threads=1 / sliced_threads=0 / nr=0 / decimate=0 / interlaced=0 / bluray_compat=0 / constrained_intra=0 / bframes=16 / b_pyramid=2 / b_adapt=2 / b_bias=0 / direct=3 / weightb=1 / open_gop=0 / weightp=2 / keyint=250 / keyint_min=25 / scenecut=40 / intra_refresh=0 / rc=2pass / mbtree=0 / bitrate=2700 / ratetol=1.0 / qcomp=0.60 / qpmin=0 / qpmax=69 / qpstep=4 / cplxblur=20.0 / qblur=0.5 / ip_ratio=1.40 / pb_ratio=1.30 / aq=1:1.00
Язык : English
Default : Да
Forced : Нет
Цветовой диапазон : Limited
Основные цвета : BT.601 NTSC
Характеристики трансфера : BT.601
Коэффициенты матрицы : BT.601

Аудио
Идентификатор : 2
Формат : AC-3
Формат/Информация : Audio Coding 3
Расширение режима : CM (complete main)
Параметр Endianness формата : Big
Идентификатор кодека : A_AC3
Продолжительность : 1 ч. 24 м.
Вид битрейта : Постоянный
Битрейт : 192 Кбит/сек
Каналы : 2 канала
Расположение каналов : Front: L R
Частота : 48,0 КГц
Частота кадров : 31,250 кадров/сек (1536 spf)
Метод сжатия : С потерями
Размер потока : 116 Мбайт (7%)
Default : Да
Forced : Нет

piratbit.cc



Скачать Сумасшедший день через торрент http://s010.radikal.ru/i314/1709/df/7e59ffb93ff7.jpg Скачать фильм Сумасшедший день через торрент бесплантно в хорошем качестве Описание: Директор и режисcер фильма, получив на съемки комедийного сериала со звездами вместо обещанного супербюджета весьма скудные ... 10 10 2
Info! Золотая раздача, скачанное не засчитывается.
Торрент: Зарегистрирован [2017-09-10 17:39] · скачан: 17 раз
Статус: √ проверено
Размер: 1.71 GB
Как cкачать? Как скачать Сумасшедший день через торрент | qTorrent


>> Регистрируемся здесь <<






Отзывы и комментарии о схеме читаем и пишем здесь: ---> Отзывы и комментарии о схеме

Новые благодарочки в телеграм довольных пользователей:
скриншот   скриншот   скриншот   скриншот   скриншот

10-09-2017 17:43 Сумасшедший день Скачать торрент  

Топик был перенесен из форума Оформление раздач (Кино, Видео и ТВ) в форум Наши фильмы, до 2010


-Lexx-piratbit.cc



    Дорогой пользователь! Огромная просьба, поблагодарите релизера, оцените раздачу и оставьте свои комментарий, если Вы скачали Сумасшедший день через торрент бесплатно! Внесите свою лепту в развитие PiratBit!
    Комментировать посты могут только пользователи прошедшие не сложную регистрацию
    Показать сообщения:    

    Сумасшедший день через торрент
    Скачать бесплатно Сумасшедший день
    Сумасшедший день скачать торрент
    Сумасшедший день смотреть онлайн
    Cкачать фильм Сумасшедший день бесплатно
    Сумасшедший день скачать торрент в хорошем качестве
    Сумасшедший день смотреть онлайн бесплатно в хорошем качестве


    Вы не можете начинать темы
    Вы не можете отвечать на сообщения
    Вы не можете редактировать свои сообщения
    Вы не можете удалять свои сообщения
    Вы не можете голосовать в опросах
    Вы не можете прикреплять файлы к сообщениям
    Вы можете скачивать файлы