Лицензия

30

iTunes

мы

iTunes

1

1 сезон

Чернобыль

1 сезон

Ральф против интернета

MVO

Покемон. Детектив Пикачу

8 сезон

Игра престолов

iTunes

1+1

ИГРА 18+

pack

ВАЖНО

!!Акция!!

Alien_RageХит недели

RePack

Resident Evil 21
pack

RePack

Metro:Exodus

!!Акция!!

Alien_Rage

RePack

fifa19

RePack

Assassins Creed: Odyssey

RePack

NEED FOR SPEED™ PAYBACK

3 сезон

9 сезон

Бесстыжие 9 сезон

Все сериалы

все сериалы на PB.wtf

RePack

FAR CRY 5
Ребята, катастрофически не хватает 2730р. для оплаты серверов за МАЙ (всвязи с блокировками трафик упал в 3 раза), 1-2р., выручайте.
  

Испанский вояж Степаныча (Максим Воронков) [2006 г., Комедия, DVDRip-AVC] от ExKinoRay piratbit.cc

Испанский вояж Степаныча через торрент piratbit.cc

Размер: 1.68 GB | Добавлен: 1 год 9 мес. назад | Торрент скачан:13 раз
Скачать  

16-09-2017 17:07 Испанский вояж Степаныча Скачать торрент  

Испанский вояж Степаныча
Год выпуска: 2006
Страна: Россия
Жанр: Комедия
Продолжительность: 01:18:38

Режиссер: Максим Воронков



В ролях: Илья Олейников, Любовь Полищук, Алиса Гребенщикова, Станислав Садальский, Михаил Владимиров, Михаил Галустян, Александр Пятков, Лада Дэнс, Денис Клявер, Станислав Костюшкин

Описание: Очередной подвиг во имя родного завода, приводят автомеханика Тимофея Степановича Окопова, его жену Люсю и дочь Машу на средиземноморское побережье Испании. Находясь под их бдительным надзором, отец семейства с трудом тянет «туристическую лямку», ожидая приезда из Таиланда авантюриста и шулера Сени. Но не он один мечтает повидаться с ним. Наемный убийца Янычар и его работодатель олигарх Ваха Воркутидзе хотят отнять у Сени документы на завод…

Качество: DVDRip-AVC
Формат: MKV
Видео кодек: MPEG4
Аудио кодек: AC3
Видео: MPEG-4 AVC, 2600 Кбит/с, 716x460@763x460, 25,000 кадров/сек
Аудио#1: AC3, 6 ch, 448 Кбит/с, 48 Кгц
Релиз от:




raw [info]: 716x460p 16:15 @ 25/1 fps (cfr)
x264 [info]: using SAR=16/15
x264 [info]: using cpu capabilities: MMX2 SSE2Fast LZCNT
x264 [info]: profile High, level 4.1
x264 [info]: frame I:871 Avg QP:16.13 size: 69358
x264 [info]: frame P:26504 Avg QP:18.62 size: 26421
x264 [info]: frame B:90592 Avg QP:20.05 size: 8532
x264 [info]: consecutive B-frames: 2.0% 3.2% 9.6% 24.1% 13.9% 41.1% 3.3% 1.1% 0.5% 0.3% 0.2% 0.3% 0.1% 0.0% 0.0% 0.0% 0.1%
-----
Общее
Уникальный идентификатор : 212733481467009412042108614124687396323 (0xA00AFA6C2C930181BA87115E707D0DE3)
Полное имя : D:\Relizes\Ispanskiy.Vojz.2006.DVDRip-AVC.ExKinoRay.mkv
Формат : Matroska
Версия формата : Version 2
Размер файла : 1,68 Гбайт
Продолжительность : 1 ч. 18 м.
Общий поток : 3050 Кбит/сек
Дата кодирования : UTC 2017-09-16 14:35:47
Программа кодирования : mkvmerge v7.8.0 ('River Man') 32bit built on Apr 3 2015 12:11:22
Библиотека кодирования : libebml v1.3.1 + libmatroska v1.4.2

Видео
Идентификатор : 1
Формат : AVC
Формат/Информация : Advanced Video Codec
Профиль формата : High@L4.1
Параметр CABAC формата : Да
Параметр ReFrames формата : 14 кадров
Идентификатор кодека : V_MPEG4/ISO/AVC
Продолжительность : 1 ч. 18 м.
Битрейт : 2600 Кбит/сек
Ширина : 716 пикселей
Высота : 460 пикселей
Соотношение сторон : 5:3
Соотношение сторон в оригинале : 5:3
Режим частоты кадров : Постоянный
Частота кадров : 25,000 кадров/сек
Цветовое пространство : YUV
Субдискретизация насыщенности : 4:2:0
Битовая глубина : 8 бит
Тип развёртки : Прогрессивная
Бит/(Пиксели*Кадры) : 0.316
Размер потока : 1,40 Гбайт (83%)
Библиотека кодирования : x264 core 148 r2638 7599210
Настройки программы : cabac=1 / ref=14 / deblock=1:-2:-2 / analyse=0x3:0x133 / me=umh / subme=10 / psy=1 / psy_rd=1.05:0.15 / mixed_ref=1 / me_range=32 / chroma_me=1 / trellis=2 / 8x8dct=1 / cqm=0 / deadzone=21,11 / fast_pskip=0 / chroma_qp_offset=-3 / threads=4 / lookahead_threads=1 / sliced_threads=0 / nr=0 / decimate=0 / interlaced=0 / bluray_compat=0 / constrained_intra=0 / bframes=16 / b_pyramid=2 / b_adapt=2 / b_bias=0 / direct=3 / weightb=1 / open_gop=0 / weightp=2 / keyint=250 / keyint_min=25 / scenecut=40 / intra_refresh=0 / rc=2pass / mbtree=0 / bitrate=2600 / ratetol=1.0 / qcomp=0.60 / qpmin=0 / qpmax=69 / qpstep=4 / cplxblur=20.0 / qblur=0.5 / ip_ratio=1.40 / pb_ratio=1.30 / aq=1:1.00
Язык : English
Default : Да
Forced : Нет
Цветовой диапазон : Limited
Основные цвета : BT.601 NTSC
Характеристики трансфера : BT.601
Коэффициенты матрицы : BT.601

Аудио
Идентификатор : 2
Формат : AC-3
Формат/Информация : Audio Coding 3
Расширение режима : CM (complete main)
Параметр Endianness формата : Big
Идентификатор кодека : A_AC3
Продолжительность : 1 ч. 18 м.
Вид битрейта : Постоянный
Битрейт : 448 Кбит/сек
Каналы : 6 каналов
Расположение каналов : Front: L C R, Side: L R, LFE
Частота : 48,0 КГц
Частота кадров : 31,250 кадров/сек (1536 spf)
Метод сжатия : С потерями
Размер потока : 252 Мбайт (15%)
Default : Да
Forced : Нет

piratbit.cc



Скачать Испанский вояж Степаныча через торрент http://s018.radikal.ru/i522/1709/80/928ef6647b4a.jpg Скачать фильм Испанский вояж Степаныча через торрент бесплантно в хорошем качестве Описание: Очередной подвиг во имя родного завода, приводят автомеханика Тимофея Степановича Окопова, его жену Люсю и дочь Машу на ... 5 10 1
Info! Золотая раздача, скачанное не засчитывается.
Торрент: Зарегистрирован [2017-09-16 17:07] · скачан: 13 раз
Статус: √ проверено
Размер: 1.68 GB
Как cкачать? Как скачать Испанский вояж Степаныча через торрент | qTorrent


>> Регистрируемся здесь <<






Отзывы и комментарии о схеме читаем и пишем здесь: ---> Отзывы и комментарии о схеме

Новые благодарочки в телеграм довольных пользователей:
скриншот   скриншот   скриншот   скриншот   скриншот

17-09-2017 01:33 Испанский вояж Степаныча Скачать торрент  

Топик был перенесен из форума Фильмы 2006-2008 в форум Наши фильмы, до 2010


schultzpiratbit.cc



    Дорогой пользователь! Огромная просьба, поблагодарите релизера, оцените раздачу и оставьте свои комментарий, если Вы скачали Испанский вояж Степаныча через торрент бесплатно! Внесите свою лепту в развитие PiratBit!
    Комментировать посты могут только пользователи прошедшие не сложную регистрацию
    Показать сообщения:    

    Испанский вояж Степаныча через торрент
    Скачать бесплатно Испанский вояж Степаныча
    Испанский вояж Степаныча скачать торрент
    Испанский вояж Степаныча смотреть онлайн
    Cкачать фильм Испанский вояж Степаныча бесплатно
    Испанский вояж Степаныча скачать торрент в хорошем качестве
    Испанский вояж Степаныча смотреть онлайн бесплатно в хорошем качестве


    Вы не можете начинать темы
    Вы не можете отвечать на сообщения
    Вы не можете редактировать свои сообщения
    Вы не можете удалять свои сообщения
    Вы не можете голосовать в опросах
    Вы не можете прикреплять файлы к сообщениям
    Вы можете скачивать файлы