iTunes

1+1

iTunes

мы

iTunes

1

1 сезон

Чернобыль

1 сезон

Ральф против интернета

Лицензия

ПШазам

8 сезон

Игра престолов

Лицензия

30
pack

ВАЖНО

!!Акция!!

Alien_RageХит недели

RePack

Resident Evil 21

ИГРА 18+

pack

RePack

Metro:Exodus

!!Акция!!

Alien_Rage

RePack

fifa19

RePack

Assassins Creed: Odyssey

RePack

NEED FOR SPEED™ PAYBACK

3 сезон

9 сезон

Бесстыжие 9 сезон

Все сериалы

все сериалы на PB.wtf

RePack

FAR CRY 5
Ребята, катастрофически не хватает 2730р. для оплаты серверов за ИЮНЬ (всвязи с блокировками трафик упал в 3 раза), 1-2р., выручайте.
  

Судная ночь / The Purge / Сезон: 1 / Серии: 1-10 из 10 (Энтони Хемингуэй, Нина Лопес-Коррадо, Майкл Нанкин) [2018, ужасы, фантастика, боевик, триллер, драма, WEB-DLRip) MVO [TVShows] piratbit.cc

Судная ночь через торрент piratbit.cc

Размер: 7 GB | Добавлен: 9 д. назад | Торрент скачан:2 раза
Скачать  

05-09-2018 18:24 Судная ночь Скачать торрент  

Судная ночь | The Purge Год выпуска: 2018
Страна: США
Жанр: Ужасы, фантастика, боевик, триллер, драма
Продолжительность: ~ 00:50:00
Перевод: Любительский (многоголосый закадровый) | TVShows
Субтитры: отсутствуют

rating

Режиссёр: Энтони Хемингуэй, Нина Лопес-Коррадо, Майкл Нанкин

В ролях: Гэбриел Чаварриа, Ханна Эмили Андерсон, Джессика Гарза, Лили Симмонс, Аманда Уоррен, Колин Вуделл, Ли Тергесен, Уильям Болдуин, Рид Даймонд, Фиона Дуриф, Доминик Фумуса, Паулина Гальвес и др.

Описание: Чтобы сократить уровень преступности, власти США ввели традицию Судной ночи. Раз в году на 12 часов разрешены любые преступления, которые не будут караться законом на следующий день. В центре истории — группа жителей американского городка, чьи судьбы рано или поздно пересекутся в одну из таких страшных ночей.

Качество: WEB-DLRip
Формат: AVI

Видео: XVID, 720x400, 23.976 fps, ~2000 kbps avg, ~0.29 bit/pixel
Аудио Rus: AC3, 48.0 KHz, 6 channels, 384 kbps


Реклама отсутствует
General
Complete name : G:\Судная ночь (Сезон 1) TVShows\The.Purge.S01E01.WEB-DLRip.RGzsRutracker.Celta88.avi
Format : AVI
Format/Info : Audio Video Interleave
File size : 871 MiB
Duration : 50 min 53 s
Overall bit rate : 2 393 kb/s
Writing application : VirtualDubMod 1.5.10.3 | www.virtualdub-fr.org || (build 2550/release)
Writing library : VirtualDubMod build 2550/release

Video
ID : 0
Format : MPEG-4 Visual
Format profile : Advanced Simple@L5
Format settings, BVOP : 1
Format settings, QPel : No
Format settings, GMC : No warppoints
Format settings, Matrix : Custom
Codec ID : XVID
Codec ID/Hint : XviD
Duration : 50 min 53 s
Bit rate : 2 000 kb/s
Width : 720 pixels
Height : 400 pixels
Display aspect ratio : 16:9
Frame rate : 23.976 (24000/1001) FPS
Color space : YUV
Chroma subsampling : 4:2:0
Bit depth : 8 bits
Scan type : Progressive
Compression mode : Lossy
Bits/(Pixel*Frame) : 0.290
Stream size : 728 MiB (84%)
Writing library : XviD 73

Audio
ID : 1
Format : AC-3
Format/Info : Audio Coding 3
Mode extension : CM (complete main)
Format settings, Endianness : Big
Codec ID : 2000
Duration : 50 min 53 s
Bit rate mode : Constant
Bit rate : 384 kb/s
Channel(s) : 6 channels
Channel positions : Front: L C R, Side: L R, LFE
Sampling rate : 48.0 kHz
Frame rate : 31.250 FPS (1536 spf)
Bit depth : 16 bits
Compression mode : Lossy
Stream size : 140 MiB (16%)
Alignment : Split accross interleaves
Interleave, duration : 42 ms (1.00 video frame)
Interleave, preload duratio : 500 ms
Внимание! Раздача ведётся путём добавления новых серий; при каждом добавлении создаётся новый торрент.
Чтобы начать докачку новой серии, пользователям необходимо сделать следующее:
1. Остановить скачивание.
2. Удалить старый торрент у себя из клиента (старые серии удалять не надо).
3. Скачать новый торрент и запустить его у себя в клиенте вместо старого, при этом указать клиенту путь в старую папку куда и должно происходить скачивание новых серий.
Ваш клиент при этом должен произвести хеширование (проверку) старой папки (если не производит сам - помогите ему сделать это), и будет докачивать только те серии которых у вас ещё нет. Старые серии при этом не удаляются, а продолжают раздаваться!
Eсли вы уже удалили старые серии, то предотвратить повторную закачку старых серий можно, отжав галочку в соответствующих местах при запуске нового торрента.
piratbit.cc



Скачать Судная ночь через торрент http://i100.fastpic.ru/big/2018/0921/f8/23d3bb26483145fdf296dc6b4b9ce7f8.jpg Скачать фильм Судная ночь через торрент бесплантно в хорошем качестве Описание: Чтобы сократить уровень преступности, власти США ввели традицию Судной ночи. Раз в году на 12 часов разрешены любые преступления, ... 7.8 10 4
Торрент: Зарегистрирован [2019-07-11 10:34] · скачан: 2 раз
Статус: √ проверено
Размер: 7 GB
Как cкачать? Как скачать Судная ночь через торрент | qTorrent

% Раздел Тема Автор DL S | L
Зарубежные сериалы [ 19.93 GB ] Судная ночь / The Purge / Сезон: 1 / Серии: 1-10 из 10 [2018 WEB-DL 1080p) MVO [TVShows] bober100 Скачать
1 | 0
Зарубежные сериалы [ 19.92 GB ] Судная ночь / The Purge / Сезон: 1 / Серии: 1-10 из 10 [2018 WEBRip 1080p] MVO [LostFilm] bober100 Скачать
2 | 0
Зарубежные сериалы [ 15.05 GB ] Судная ночь / The Purge / Сезон: 1 / Серии: 1-7 из 10 [2018 WEB-DL 1080p] 2x [MVO] killermax2013 Скачать
1 | 0
Зарубежные сериалы [ 8.41 GB ] Судная ночь / The Purge / Сезон: 1 / Серии: 1-10 из 10 [2018 WEB-DL 720p] MVO [Jaskier] bober100 Скачать
1 | 0
Зарубежные сериалы [ 4.89 GB ] Судная ночь / The Purge / Сезон: 1 / Серии: 1-10 из 10 [2018 WEB-DLRip] MVO [Jaskier] bober100 Скачать
1 | 0
Зарубежные сериалы [ 5.34 GB ] Судная ночь / The Purge / Сезон: 1 / Серии: 1-10 из 10 [2018 WEBRip] MVO [LostFilm] bober100 Скачать
1 | 0


Последний раз редактировалось: bober100 (2019-07-11 10:34), всего редактировалось 1 раз


>> Регистрируемся здесь <<






Отзывы и комментарии о схеме читаем и пишем здесь: ---> Отзывы и комментарии о схеме

Новые благодарочки в телеграм довольных пользователей:
скриншот   скриншот   скриншот   скриншот   скриншот
    Дорогой пользователь! Огромная просьба, поблагодарите релизера, оцените раздачу и оставьте свои комментарий, если Вы скачали Судная ночь через торрент бесплатно! Внесите свою лепту в развитие PiratBit!
    Комментировать посты могут только пользователи прошедшие не сложную регистрацию
    Показать сообщения:    

    Судная ночь через торрент
    Скачать бесплатно Судная ночь
    Судная ночь скачать торрент
    Судная ночь смотреть онлайн
    Cкачать фильм Судная ночь бесплатно
    Судная ночь скачать торрент в хорошем качестве
    Судная ночь смотреть онлайн бесплатно в хорошем качестве


    Вы не можете начинать темы
    Вы не можете отвечать на сообщения
    Вы не можете редактировать свои сообщения
    Вы не можете удалять свои сообщения
    Вы не можете голосовать в опросах
    Вы не можете прикреплять файлы к сообщениям
    Вы можете скачивать файлы