Лицензия

30

iTunes

мы

iTunes

1

1 сезон

Чернобыль

1 сезон

Ральф против интернета

MVO

Покемон. Детектив Пикачу

8 сезон

Игра престолов

iTunes

1+1

ИГРА 18+

pack

ВАЖНО

!!Акция!!

Alien_RageХит недели

RePack

Resident Evil 21
pack

RePack

Metro:Exodus

!!Акция!!

Alien_Rage

RePack

fifa19

RePack

Assassins Creed: Odyssey

RePack

NEED FOR SPEED™ PAYBACK

3 сезон

9 сезон

Бесстыжие 9 сезон

Все сериалы

все сериалы на PB.wtf

RePack

FAR CRY 5
Ребята, катастрофически не хватает 2730р. для оплаты серверов за МАЙ (всвязи с блокировками трафик упал в 3 раза), 1-2р., выручайте.
  

Доказанная невиновность / Proven Innocent / Сезон: 1 / Серии: 1-13 из 13 (Патрисия Ригген, Анна Мастро) [2019, драма, WEB-DLRip] MVO [Jaskier] piratbit.cc

Доказанная невиновность через торрент piratbit.cc

Раздают: 2 [ 42 KB/s ]
Размер: 6.99 GB | Добавлен: 24 д. назад | Торрент скачан:11 раз
Скачать  

21-02-2019 04:59 Доказанная невиновность Скачать торрент  

Доказанная невиновность / Proven Innocent

Год выпуска: 2019
Страна: США
Жанр: драма
Продолжительность: ~ 00:44:00
Перевод: Профессиональный (многоголосый закадровый) | Jaskier
Субтитры: отсутствуют

Режиссёр: Патрисия Ригген, Анна Мастро

В ролях:

Клэр О'Коннор, Гарри Джарвис, Кэйтлин Менер, Лори Холден, Катрин Лидстоун, Бен Мартен, Кэйси Таттон, Илэйн Хендрикс, Надя Симмс, Бретт Райс и другие.

Описание:

Мадлен Скотт рано испытала на себе ошибки правосудия: ее с братом несправедливо осудили за убийство. Уже повзрослевшая героиня решает бороться с подобным правовым беспределом и отстаивает сторону тех людей, чьи дела вызывают сомнения. Естественно, у Мадлен появляются противники, самый главный из которых — прокурор, когда-то посадивший ее за решетку.



Качество: WEB-DLRip
Формат: AVI

Видео: XviD, ~ 1400 kbps, 720x400, 23.976 fps
Аудио 1: MP3, 48,0 КГц, 2 ch, 128 kbps - RUS
Аудио 2: MP3, 48,0 КГц, 2 ch, 128 kbps - ENG


Реклама: Присутствует звуковая (два раза в начале и конце по 12 сек.)
Общее
Полное имя                               : V:\Proven.Innocent Season 1 (WEB-DL l 400p l JASKiER)\Proven.Innocent.S01E01.400p.Jaskier.avi
Формат                                   : AVI
Формат/Информация                        : Audio Video Interleave
Размер файла                             : 554 Мбайт
Продолжительность                        : 46 м.
Общий поток                              : 1670 Кбит/сек
Программа кодирования                    : VirtualDubMod 1.5.10.3 | www.virtualdub-fr.org || (build 2550/release)
Библиотека кодирования                   : VirtualDubMod build 2550/release

Видео
Идентификатор                            : 0
Формат                                   : MPEG-4 Visual
Профиль формата                          : Advanced Simple@L5
Параметр BVOP формата                    : 2
Параметр QPel формата                    : Нет
Параметр GMC формата                     : Без точки перехода
Параметр матрицы формата                 : Выборочная
Идентификатор кодека                     : XVID
Идентификатор кодека/Подсказка           : XviD
Продолжительность                        : 46 м.
Битрейт                                  : 1400 Кбит/сек
Ширина                                   : 720 пикселей
Высота                                   : 400 пикселей
Соотношение сторон                       : 16:9
Частота кадров                           : 23,976 (23976/1000) кадра/сек
Цветовое пространство                    : YUV
Субдискретизация насыщенности            : 4:2:0
Битовая глубина                          : 8 бит
Тип развёртки                            : Прогрессивная
Метод сжатия                             : С потерями
Бит/(Пиксели*Кадры)                      : 0.203
Размер потока                            : 464 Мбайт (84%)
Библиотека кодирования                   : XviD 73

Аудио #1
Идентификатор                            : 1
Формат                                   : MPEG Audio
Версия формата                           : Version 1
Профиль формата                          : Layer 3
Режим                                    : Joint stereo
Расширение режима                        : MS Stereo
Идентификатор кодека                     : 55
Идентификатор кодека/Подсказка           : MP3
Продолжительность                        : 46 м.
Вид битрейта                             : Постоянный
Битрейт                                  : 128 Кбит/сек
Каналы                                   : 2 канала
Частота                                  : 48,0 КГц
Метод сжатия                             : С потерями
Размер потока                            : 42,5 Мбайт (8%)
Выравнивание                             : Соединение по промежуткам
Продолжительность промежутка             : 42  мс. (1,00 видеокадр)
Время предзагрузки промежутка            : 504  мс.

Аудио #2
Идентификатор                            : 2
Формат                                   : MPEG Audio
Версия формата                           : Version 1
Профиль формата                          : Layer 3
Режим                                    : Joint stereo
Расширение режима                        : MS Stereo
Идентификатор кодека                     : 55
Идентификатор кодека/Подсказка           : MP3
Продолжительность                        : 46 м.
Вид битрейта                             : Постоянный
Битрейт                                  : 128 Кбит/сек
Каналы                                   : 2 канала
Частота                                  : 48,0 КГц
Метод сжатия                             : С потерями
Размер потока                            : 42,5 Мбайт (8%)
Выравнивание                             : Соединение по промежуткам
Продолжительность промежутка             : 42  мс. (1,00 видеокадр)
Время предзагрузки промежутка            : 504  мс.
скриншот  скриншот  скриншот  
Когда раздача ведётся путём добавления новых серий, при каждом добавлении создётся новый торрент. Чтобы начать докачку новой серии, пользователям необходимо сделать следующее:
(1) остановить скачивание,
(2) удалить старый торрент у себя из клиента (старые серии удалять не надо),
(3) скачать новый торрент и запустить его у себя в клиенте вместо старого, при этом указать клиенту путь в старую папку, куда и должно происходить скачивание новых серий.
Ваш клиент при этом должен произвести хеширование (проверку) старой папки (если не производит сам - помогите ему сделать это), и будет докачивать только те серии, которых у вас ещё нет. Старые серии при этом не удаляются, а продолжают раздаваться!
Eсли вы уже удалили старые серии, то предотвратить повторную закачку старых серий можно, отжав галочку в соответсвующих местах при запуске нового торрента. По возможности, желательно не удалять старые серии как можно дольше, чтобы релизёр не столько продолжал раздавать старые серии, а смог сконцентрироваться на новых.
piratbit.cc



Скачать Доказанная невиновность через торрент https://i110.fastpic.ru/big/2019/0220/47/79cbbe8590e9ae1346917520e70f4047.png Скачать фильм Доказанная невиновность через торрент бесплантно в хорошем качестве Описание: Мадлен Скотт рано испытала на себе ошибки правосудия: ее с братом несправедливо осудили за убийство. Уже повзрослевшая героиня ... 10 10 4
Торрент: Зарегистрирован [2019-05-25 20:31] · скачан: 11 раз
Статус: √ проверено
Размер: 6.99 GB
Как cкачать? Как скачать Доказанная невиновность через торрент | qTorrent

% Раздел Тема Автор DL S | L
Зарубежные сериалы [ 42.18 GB ] Доказанная невиновность / Proven Innocent / Сезон: 1 / Серии: 1-13 из 13 [2019 WEB-DL 1080p] [MVO] killermax2013 Скачать
1 | 0
Зарубежные сериалы [ 16.48 GB ] Доказанная невиновность / Proven Innocent / Сезон: 1 / Серии: 1-13 из 13 [2019 WEB-DL 720p] MVO [Jaskier] bober100 Скачать
1 | 0


Последний раз редактировалось: bober100 (2019-05-25 20:31), всего редактировалось 1 раз


>> Регистрируемся здесь <<






Отзывы и комментарии о схеме читаем и пишем здесь: ---> Отзывы и комментарии о схеме

Новые благодарочки в телеграм довольных пользователей:
скриншот   скриншот   скриншот   скриншот   скриншот

09-05-2019 15:02 Доказанная невиновность Скачать торрент  

Так себе...Средненький Сериал... У FOX есть и покруче сюжеты..=))piratbit.cc



    Дорогой пользователь! Огромная просьба, поблагодарите релизера, оцените раздачу и оставьте свои комментарий, если Вы скачали Доказанная невиновность через торрент бесплатно! Внесите свою лепту в развитие PiratBit!
    Комментировать посты могут только пользователи прошедшие не сложную регистрацию
    Показать сообщения:    

    Доказанная невиновность через торрент
    Скачать бесплатно Доказанная невиновность
    Доказанная невиновность скачать торрент
    Доказанная невиновность смотреть онлайн
    Cкачать фильм Доказанная невиновность бесплатно
    Доказанная невиновность скачать торрент в хорошем качестве
    Доказанная невиновность смотреть онлайн бесплатно в хорошем качестве


    Вы не можете начинать темы
    Вы не можете отвечать на сообщения
    Вы не можете редактировать свои сообщения
    Вы не можете удалять свои сообщения
    Вы не можете голосовать в опросах
    Вы не можете прикреплять файлы к сообщениям
    Вы можете скачивать файлы