Лицензия

30

iTunes

мы

iTunes

1

1 сезон

Чернобыль

1 сезон

Ральф против интернета

MVO

Покемон. Детектив Пикачу

8 сезон

Игра престолов

iTunes

1+1

ИГРА 18+

pack

ВАЖНО

!!Акция!!

Alien_RageХит недели

RePack

Resident Evil 21
pack

RePack

Metro:Exodus

!!Акция!!

Alien_Rage

RePack

fifa19

RePack

Assassins Creed: Odyssey

RePack

NEED FOR SPEED™ PAYBACK

3 сезон

9 сезон

Бесстыжие 9 сезон

Все сериалы

все сериалы на PB.wtf

RePack

FAR CRY 5
Ребята, катастрофически не хватает 2730р. для оплаты серверов за МАЙ (всвязи с блокировками трафик упал в 3 раза), 1-2р., выручайте.
  

Гурвинек. Волшебная игра (Мартин Котик, Джеспер Мюллер, Инна Евланникова) [2017, мультфильм, фэнтези, комедия, приключения, семейный, WEB-DL 720p] piratbit.cc

Гурвинек. Волшебная игра через торрент piratbit.cc

Размер: 3.2 GB | Добавлен: 1 мес. 1 д. назад | Торрент скачан:8 раз
Скачать  

10-03-2019 17:07 Гурвинек. Волшебная игра Скачать торрент  

Гурвинек. Волшебная игра
Год выпуска: 2017
Страна: Россия, Чехия, Бельгия
Жанр: мультфильм, фэнтези, комедия, приключения, семейный
Продолжительность: 01:20:07
Перевод: Не требуется
Субтитры: отсутствуют

Режиссер: Мартин Котик, Джеспер Мюллер, Инна Евланникова

rating

В ролях:

Александр Трачевский, Михаил Ефремов, Константин Райкин, Алексей Колган, Юрий Стоянов, Анна Ардова, Ольга Тумайкина, Олеся Железняк, Андрей Рожков, Евгения Каверау

Описание:

Гурвинек - умный и жизнерадостный десятилетний мальчик, страстно желающий только одного - завершить последний уровень невероятно сложной компьютерной игры. Тогда его имя попадет в заветный Зал Славы, задиры из школы наконец-то признают его, и даже рассеянный отец сможет им гордиться. Но победа в виртуальной игре становится только началом настоящего путешествия Гурвинека, его верного пса и их невозмутимой соседки в давно забытый мир старинного городского музея игрушек. Гурвинек случайно активирует легендарный волшебный диск, который оживляет не только музей и всех его удивительных обитателей, но и чудовищного престарелого кукловода!

Качество: WEB-DL 720p
Формат: MKV

Видео: h.264,5 339 Кбит/с, 1280x720
Аудио: Русский, (AC3, 2 ch, 384 Кбит/с)
скриншот  скриншот  скриншот  

Общее
Уникальный идентификатор : 214777489169960283510137509057292582272 (0xA194A3C8718103C89F1B7BE60D6ABD80)
Полное имя : D:\GuRviNek.VoLSHebnaYa.Igra.2O19.O.WEB-DL.72Op.mkv
Формат : Matroska
Версия формата : Version 2
Размер файла : 3,20 Гбайт
Продолжительность : 1 ч. 20 м.
Режим общего битрейта : Переменный
Общий поток : 5725 Кбит/сек
Дата кодирования : UTC 2019-05-18 01:21:52
Программа кодирования : mkvmerge v8.3.0 ('Over the Horizon') 64bit
Библиотека кодирования : libebml v1.3.1 + libmatroska v1.4.2

Видео
Идентификатор : 1
Формат : AVC
Формат/Информация : Advanced Video Codec
Профиль формата : High@L4.1
Параметр CABAC формата : Да
Параметр RefFrames формата : 4 кадра
Идентификатор кодека : V_MPEG4/ISO/AVC
Продолжительность : 1 ч. 20 м.
Вид битрейта : Переменный
Битрейт : 5339 Кбит/сек
Максимальный битрейт : 6000 Кбит/сек
Ширина : 1280 пикселей
Высота : 720 пикселей
Соотношение сторон : 16:9
Режим частоты кадров : Постоянный
Частота кадров : 23,976 (24000/1001) кадра/сек
Стандарт вещания : Component
Цветовое пространство : YUV
Субдискретизация насыщенности : 4:2:0
Битовая глубина : 8 бит
Тип развёртки : Прогрессивная
Бит/(Пиксели*Кадры) : 0.237
Размер потока : 2,93 Гбайт (91%)
Default : Да
Forced : Нет
Цветовой диапазон : Limited
Основные цвета : BT.709
Характеристики трансфера : BT.709
Коэффициенты матрицы : BT.709

Аудио
Идентификатор : 2
Формат : AC-3
Формат/Информация : Audio Coding 3
Расширение режима : CM (complete main)
Параметр Endianness формата : Big
Идентификатор кодека : A_AC3
Продолжительность : 1 ч. 20 м.
Вид битрейта : Постоянный
Битрейт : 384 Кбит/сек
Каналы : 2 канала
Расположение каналов : Front: L R
Частота : 48,0 КГц
Частота кадров : 31,250 кадров/сек (1536 spf)
Метод сжатия : С потерями
Размер потока : 220 Мбайт (7%)
Default : Да
Forced : Нет

piratbit.cc



Скачать Гурвинек. Волшебная игра через торрент https://c.radikal.ru/c43/1903/32/ca7aa66e2159.jpg Скачать фильм Гурвинек. Волшебная игра через торрент бесплантно в хорошем качестве Описание: Гурвинек - умный и жизнерадостный десятилетний мальчик, страстно желающий только одного - завершить последний уровень невероятно ... 8.2 10 5
Торрент: Зарегистрирован [2019-05-18 12:45] · скачан: 8 раз
Статус: T временная
Размер: 3.2 GB
Как cкачать? Как скачать Гурвинек. Волшебная игра через торрент | qTorrent

% Раздел Тема Автор DL S | L
T Наши фильмы (мультфильмы) cо спонсором показа (Новинки AVI/MKV) [ 3.59 GB ] Гурвинек. Волшебная игра [2017 мультфильм WEB-DL 1080p] bober100 Скачать
3 | 0
T Наши фильмы (мультфильмы) cо спонсором показа (Новинки AVI/MKV) [ 1.37 GB ] Гурвинек. Волшебная игра [2017 мультфильм WEB-DLRip] bober100 Скачать
3 | 0


>> Регистрируемся здесь <<






Отзывы и комментарии о схеме читаем и пишем здесь: ---> Отзывы и комментарии о схеме

Новые благодарочки в телеграм довольных пользователей:
скриншот   скриншот   скриншот   скриншот   скриншот
    Дорогой пользователь! Огромная просьба, поблагодарите релизера, оцените раздачу и оставьте свои комментарий, если Вы скачали Гурвинек. Волшебная игра через торрент бесплатно! Внесите свою лепту в развитие PiratBit!
    Комментировать посты могут только пользователи прошедшие не сложную регистрацию
    Показать сообщения:    

    Гурвинек. Волшебная игра через торрент
    Скачать бесплатно Гурвинек. Волшебная игра
    Гурвинек. Волшебная игра скачать торрент
    Гурвинек. Волшебная игра смотреть онлайн
    Cкачать фильм Гурвинек. Волшебная игра бесплатно
    Гурвинек. Волшебная игра скачать торрент в хорошем качестве
    Гурвинек. Волшебная игра смотреть онлайн бесплатно в хорошем качестве


    Вы не можете начинать темы
    Вы не можете отвечать на сообщения
    Вы не можете редактировать свои сообщения
    Вы не можете удалять свои сообщения
    Вы не можете голосовать в опросах
    Вы не можете прикреплять файлы к сообщениям
    Вы можете скачивать файлы