iTunes

1+1

iTunes

мы

iTunes

1

iTunes

Чернобыль

iTunes

Ральф против интернета

Лицензия

ПШазам

Лицензия

Игра престолов

Лицензия

30
pack

ВАЖНО

!!Акция!!

Alien_RageХит недели

RePack

Resident Evil 21

ИГРА 18+

pack

RePack

Metro:Exodus

!!Акция!!

Alien_Rage

RePack

fifa19

RePack

Assassins Creed: Odyssey

RePack

NEED FOR SPEED™ PAYBACK

3 сезон

9 сезон

Бесстыжие 9 сезон

Все сериалы

все сериалы на PB.wtf

RePack

FAR CRY 5
Ребята, катастрофически не хватает 7730р. для оплаты серверов за АВГУСТ (всвязи с блокировками трафик упал в 3 раза), 1-2р., выручайте.
  

Милые обманщицы: Перфекционистки / Pretty Little Liars: The Perfectionists / Сезон: 1 / Серии: 1-10 из 10 ( Элизабет Аллен, Норман Бакли, Шири Эпплби) [2019, триллер, драма, мелодрама, криминал, детектив, WEB-DL 720p] MVO [Jaskier] piratbit.cc

Милые обманщицы: Перфекционистки через торрент piratbit.cc

Размер: 10.39 GB | Добавлен: 3 мес. 23 д. назад | Торрент скачан:9 раз
Скачать  

03-04-2019 02:15 Милые обманщицы: Перфекционистки Скачать торрент  

Милые обманщицы: Перфекционистки / Pretty Little Liars: The Perfectionists Год выпуска: 2019
Страна: США
Жанр: Триллер, драма, мелодрама, криминал, детектив
Продолжительность: ~ 00:45:00
Перевод: Профессиональный (многоголосый закадровый) | Jaskier
Субтитры: отсутствуют

Режиссёр: Элизабет Аллен, Норман Бакли, Шири Эпплби

В ролях:

Эли Браун, София Карсон, Хейли Эрин, Грэм Томас Кинг, Крис Мэйсон, Сидни Парк, Джанел Пэрриш, Саша Питерс, Келли Разерфорд, Эван Биттенкур

Описание:

Все в городке Бикон Хейтс - от престижного колледжа до суперуспешных резидентов - кажется идеальным. Но ничто в этом городе не является тем, чем кажется. Маниакальное стремление жителей быть безупречными приводит к убийству. Однако найти виновного в преступлении будет непросто - у каждого подозреваемого в этом деле есть масса секретов и прочное алиби.

rating

Качество: WEB-DL 720p
Формат: MKV

Видео: 1280x720 (16:9) | X264 | ~3912 kbps | 23.976 fps
Аудио Rus: AC3, 48 kHz, 6 ch, 384 Кбит/сек
Аудио Eng: AC3, 48 kHz, 6 ch, 384 Кбит/сек


Реклама: Присутствует звуковая (два раза в начале и конце по 10 сек.)
Общее
Уникальный идентификатор : 278659999395062505085082782303220208155 (0xD1A3F6B5F2621FD0CA8E91D064F5121B)
Полное имя : G:\Jaskier\Pretty.Little.Liars.The.Perfectionists Season 1 (WEB-DL l 720p l Jaskier)\Pretty.Little.Liars.The.Perfectionists.S01E01.WEB-DL.720p.Jaskier.mkv
Формат : Matroska
Версия формата : Version 4 / Version 2
Размер файла : 1,42 Гбайт
Продолжительность : 43 м. 32 с.
Режим общего битрейта : Постоянный
Общий поток : 4682 Кбит/сек
Дата кодирования : UTC 2019-03-24 20:55:11
Программа кодирования : mkvmerge v28.0.0 ('Voice In My Head') 64-bit
Библиотека кодирования : libebml v1.3.6 + libmatroska v1.4.9

Видео
Идентификатор : 1
Формат : AVC
Формат/Информация : Advanced Video Codec
Профиль формата : High@L3.1
Настройки формата : CABAC / 4 Ref Frames
Параметр CABAC формата : Да
Параметр RefFrames формата : 4 кадра
Идентификатор кодека : V_MPEG4/ISO/AVC
Продолжительность : 43 м. 32 с.
Вид битрейта : Постоянный
Битрейт : 3912 Кбит/сек
Номинальный битрейт : 6000 Кбит/сек
Ширина : 1280 пикселей
Высота : 720 пикселей
Соотношение сторон : 16:9
Режим частоты кадров : Постоянный
Частота кадров : 23,976 (24000/1001) кадра/сек
Цветовое пространство : YUV
Субдискретизация насыщенности : 4:2:0
Битовая глубина : 8 бит
Тип развёртки : Прогрессивная
Бит/(Пиксели*Кадры) : 0.177
Размер потока : 1,19 Гбайт (84%)
Default : Да
Forced : Нет
Цветовой диапазон : Limited
Основные цвета : BT.709
Характеристики трансфера : BT.709
Коэффициенты матрицы : BT.709

Аудио #1
Идентификатор : 2
Формат : AC-3
Формат/Информация : Audio Coding 3
Идентификатор кодека : A_AC3
Продолжительность : 43 м. 32 с.
Вид битрейта : Постоянный
Битрейт : 384 Кбит/сек
Каналы : 6 каналов
Расположение каналов : Front: L C R, Side: L R, LFE
Частота : 48,0 КГц
Частота кадров : 31,250 кадров/сек (1536 SPF)
Битовая глубина : 16 бит
Метод сжатия : С потерями
Размер потока : 120 Мбайт (8%)
Язык : Russian
ServiceKind/String : Complete Main
Default : Да
Forced : Нет

Аудио #2
Идентификатор : 3
Формат : AC-3
Формат/Информация : Audio Coding 3
Идентификатор кодека : A_AC3
Продолжительность : 43 м. 32 с.
Вид битрейта : Постоянный
Битрейт : 384 Кбит/сек
Каналы : 6 каналов
Расположение каналов : Front: L C R, Side: L R, LFE
Частота : 48,0 КГц
Частота кадров : 31,250 кадров/сек (1536 SPF)
Битовая глубина : 16 бит
Метод сжатия : С потерями
Размер потока : 120 Мбайт (8%)
Язык : English
ServiceKind/String : Complete Main
Default : Нет
Forced : Нет
скриншот  скриншот  скриншот  скриншот  
Когда раздача ведётся путём добавления новых серий, при каждом добавлении создётся новый торрент. Чтобы начать докачку новой серии, пользователям необходимо сделать следующее:
(1) остановить скачивание,
(2) удалить старый торрент у себя из клиента (старые серии удалять не надо),
(3) скачать новый торрент и запустить его у себя в клиенте вместо старого, при этом указать клиенту путь в старую папку, куда и должно происходить скачивание новых серий.
Ваш клиент при этом должен произвести хеширование (проверку) старой папки (если не производит сам - помогите ему сделать это), и будет докачивать только те серии, которых у вас ещё нет. Старые серии при этом не удаляются, а продолжают раздаваться!
Eсли вы уже удалили старые серии, то предотвратить повторную закачку старых серий можно, отжав галочку в соответсвующих местах при запуске нового торрента. По возможности, желательно не удалять старые серии как можно дольше, чтобы релизёр не столько продолжал раздавать старые серии, а смог сконцентрироваться на новых.
piratbit.cc



Скачать Милые обманщицы: Перфекционистки через торрент https://i110.fastpic.ru/big/2019/0325/00/c2d8b9dfd01b188d9686ba3350f2dc00.jpg Скачать фильм Милые обманщицы: Перфекционистки через торрент бесплантно в хорошем качестве Описание:Все в городке Бикон Хейтс - от престижного колледжа до суперуспешных резидентов - кажется идеальным. Но ничто в этом городе не ... 10 10 3
Торрент: Зарегистрирован [2019-05-26 23:47] · скачан: 9 раз
Статус: √ проверено
Размер: 10.39 GB
Как cкачать? Как скачать Милые обманщицы: Перфекционистки через торрент | qTorrent

% Раздел Тема Автор DL S | L
Зарубежные сериалы [ 5.55 GB ] Милые обманщицы: Перфекционистки / Pretty Little Liars: The Perfectionists / Сезон: 1 / Серии: 1-10 из 10 [2019 WEB-DLRip] MVO [Jaskier] bober100 Скачать
1 | 1
Зарубежные сериалы [ 23.79 GB ] Милые обманщицы: Перфекционистки / Pretty Little Liars: The Perfectionists / Сезон: 1 / Серии: 1-10 из 10 [2019 WEBRip 1080p] [MVO] killermax2013 Скачать
1 | 0


>> Регистрируемся здесь <<






Отзывы и комментарии о схеме читаем и пишем здесь: ---> Отзывы и комментарии о схеме

Новые благодарочки в телеграм довольных пользователей:
скриншот   скриншот   скриншот   скриншот   скриншот
    Дорогой пользователь! Огромная просьба, поблагодарите релизера, оцените раздачу и оставьте свои комментарий, если Вы скачали Милые обманщицы: Перфекционистки через торрент бесплатно! Внесите свою лепту в развитие PiratBit!
    Комментировать посты могут только пользователи прошедшие не сложную регистрацию
    Показать сообщения:    

    Милые обманщицы: Перфекционистки через торрент
    Скачать бесплатно Милые обманщицы: Перфекционистки
    Милые обманщицы: Перфекционистки скачать торрент
    Милые обманщицы: Перфекционистки смотреть онлайн
    Cкачать фильм Милые обманщицы: Перфекционистки бесплатно
    Милые обманщицы: Перфекционистки скачать торрент в хорошем качестве
    Милые обманщицы: Перфекционистки смотреть онлайн бесплатно в хорошем качестве


    Вы не можете начинать темы
    Вы не можете отвечать на сообщения
    Вы не можете редактировать свои сообщения
    Вы не можете удалять свои сообщения
    Вы не можете голосовать в опросах
    Вы не можете прикреплять файлы к сообщениям
    Вы можете скачивать файлы