iTunes

1+1

iTunes

мы

iTunes

1

1 сезон

Чернобыль

1 сезон

Ральф против интернета

Лицензия

ПШазам

8 сезон

Игра престолов

Лицензия

30
pack

ВАЖНО

!!Акция!!

Alien_RageХит недели

RePack

Resident Evil 21

ИГРА 18+

pack

RePack

Metro:Exodus

!!Акция!!

Alien_Rage

RePack

fifa19

RePack

Assassins Creed: Odyssey

RePack

NEED FOR SPEED™ PAYBACK

3 сезон

9 сезон

Бесстыжие 9 сезон

Все сериалы

все сериалы на PB.wtf

RePack

FAR CRY 5
Ребята, катастрофически не хватает 2730р. для оплаты серверов за ИЮНЬ (всвязи с блокировками трафик упал в 3 раза), 1-2р., выручайте.
  

Судная ночь / The Purge / Сезон: 1 / Серии: 1-10 из 10 (Энтони Хемингуэй, Нина Лопес-Коррадо, Майкл Нанкин) [2018, ужасы, фантастика, боевик, триллер, драма, WEB-DL 1080p) MVO [TVShows] piratbit.cc

Судная ночь через торрент piratbit.cc

Размер: 19.93 GB | Добавлен: 9 д. назад | Торрент скачан:0 раз
Скачать  

08-04-2019 15:26 Судная ночь Скачать торрент  

Судная ночь | The Purge Год выпуска: 2018
Страна: США
Жанр: Ужасы, фантастика, боевик, триллер, драма
Продолжительность: 00:50:00
Перевод: Профессиональный (многоголосый закадровый) | TVShows
Субтитры: Eng

Режиссёр: Энтони Хемингуэй, Нина Лопес-Коррадо, Майкл Нанкин

В ролях: Гэбриел Чаварриа, Ханна Эмили Андерсон, Джессика Гарза, Лили Симмонс, Аманда Уоррен, Колин Вуделл, Ли Тергесен, Уильям Болдуин, Рид Даймонд, Фиона Дуриф, Доминик Фумуса, Паулина Гальвес и др.

Описание: Чтобы сократить уровень преступности, власти США ввели традицию Судной ночи. Раз в году на 12 часов разрешены любые преступления, которые не будут караться законом на следующий день. В центре истории — группа жителей американского городка, чьи судьбы рано или поздно пересекутся в одну из таких страшных ночей.

Релиз от

Качество: WEB-DL 1080p
Формат: MKV

Видео: AVC, 1920x1080 (16:9), 23.976 fps, ~6 600 kb/s
Аудио Rus: AC3, 48.0 KHz, 6 channels, 384 kbps | TVShows
Аудио Eng: E-AC3, 48.0 KHz, 6 channels, 640 kbps | Original


Реклама отсутствует
General
Unique ID : 166013693638920290958255836132077052707 (0x7CE5130A4A10C2A1F92254D3EEA1A323)
Complete name : G:80р. TVShows\The.Purge.S01.1080p.TVShows\The.Purge.S01E01.1080p.TVShows.mkv
Format : Matroska
Format version : Version 4 / Version 2
File size : 2.72 GiB
Duration : 50 min 53 s
Overall bit rate mode : Variable
Overall bit rate : 7 637 kb/s
Encoded date : UTC 2018-11-04 21:47:29
Writing application : mkvmerge v28.2.0 ('The Awakening') 32-bit
Writing library : libebml v1.3.6 + libmatroska v1.4.9

Video
ID : 1
Format : AVC
Format/Info : Advanced Video Codec
Format profile : High@L4
Format settings, CABAC : Yes
Format settings, ReFrames : 4 frames
Codec ID : V_MPEG4/ISO/AVC
Duration : 50 min 53 s
Bit rate mode : Variable
Bit rate : 6 611 kb/s
Maximum bit rate : 15.0 Mb/s
Width : 1 920 pixels
Height : 1 080 pixels
Display aspect ratio : 16:9
Frame rate mode : Constant
Frame rate : 23.976 (24000/1001) FPS
Color space : YUV
Chroma subsampling : 4:2:0
Bit depth : 8 bits
Scan type : Progressive
Bits/(Pixel*Frame) : 0.133
Stream size : 2.35 GiB (87%)
Default : Yes
Forced : No
Color range : Limited
Color primaries : BT.709
Transfer characteristics : BT.709
Matrix coefficients : BT.709

Audio #1
ID : 2
Format : AC-3
Format/Info : Audio Coding 3
Mode extension : CM (complete main)
Format settings, Endianness : Big
Codec ID : A_AC3
Duration : 50 min 53 s
Bit rate mode : Constant
Bit rate : 384 kb/s
Channel(s) : 6 channels
Channel positions : Front: L C R, Side: L R, LFE
Sampling rate : 48.0 kHz
Frame rate : 31.250 FPS (1536 spf)
Bit depth : 16 bits
Compression mode : Lossy
Stream size : 140 MiB (5%)
Title : TVShows
Language : Russian
Default : Yes
Forced : Yes

Audio #2
ID : 3
Format : E-AC-3
Format/Info : Enhanced Audio Coding 3
Format settings, Endianness : Big
Codec ID : A_EAC3
Duration : 50 min 53 s
Bit rate mode : Constant
Bit rate : 640 kb/s
Channel(s) : 6 channels
Channel positions : Front: L C R, Side: L R, LFE
Sampling rate : 48.0 kHz
Frame rate : 187.500 FPS (256 spf)
Compression mode : Lossy
Stream size : 233 MiB (8%)
Title : Original
Language : English
Default : No
Forced : No

Text
ID : 4
Format : UTF-8
Codec ID : S_TEXT/UTF8
Codec ID/Info : UTF-8 Plain Text
Duration : 50 min 25 s
Bit rate : 60 b/s
Count of elements : 744
Stream size : 22.5 KiB (0%)
Title : English
Language : English
Default : No
Forced : No
Внимание! Раздача ведётся путём добавления новых серий; при каждом добавлении создаётся новый торрент.
Чтобы начать докачку новой серии, пользователям необходимо сделать следующее:
1. Остановить скачивание.
2. Удалить старый торрент у себя из клиента (старые серии удалять не надо).
3. Скачать новый торрент и запустить его у себя в клиенте вместо старого, при этом указать клиенту путь в старую папку куда и должно происходить скачивание новых серий.
Ваш клиент при этом должен произвести хеширование (проверку) старой папки (если не производит сам - помогите ему сделать это), и будет докачивать только те серии которых у вас ещё нет. Старые серии при этом не удаляются, а продолжают раздаваться!
Eсли вы уже удалили старые серии, то предотвратить повторную закачку старых серий можно, отжав галочку в соответствующих местах при запуске нового торрента.
piratbit.cc



Скачать Судная ночь через торрент http://i100.fastpic.ru/big/2018/0921/f8/23d3bb26483145fdf296dc6b4b9ce7f8.jpg Скачать фильм Судная ночь через торрент бесплантно в хорошем качестве Описание: Чтобы сократить уровень преступности, власти США ввели традицию Судной ночи. Раз в году на 12 часов разрешены любые преступления, ... 10 10 1
Торрент: Зарегистрирован [2019-07-11 10:41] · скачан: 0 раз
Статус: √ проверено
Размер: 19.93 GB
Как cкачать? Как скачать Судная ночь через торрент | qTorrent

% Раздел Тема Автор DL S | L
Зарубежные сериалы [ 19.92 GB ] Судная ночь / The Purge / Сезон: 1 / Серии: 1-10 из 10 [2018 WEBRip 1080p] MVO [LostFilm] bober100 Скачать
2 | 0
Зарубежные сериалы [ 15.05 GB ] Судная ночь / The Purge / Сезон: 1 / Серии: 1-7 из 10 [2018 WEB-DL 1080p] 2x [MVO] killermax2013 Скачать
1 | 0
Зарубежные сериалы [ 8.41 GB ] Судная ночь / The Purge / Сезон: 1 / Серии: 1-10 из 10 [2018 WEB-DL 720p] MVO [Jaskier] bober100 Скачать
1 | 0
Зарубежные сериалы [ 4.89 GB ] Судная ночь / The Purge / Сезон: 1 / Серии: 1-10 из 10 [2018 WEB-DLRip] MVO [Jaskier] bober100 Скачать
1 | 0
Зарубежные сериалы [ 7 GB ] Судная ночь / The Purge / Сезон: 1 / Серии: 1-10 из 10 [2018 WEB-DLRip) MVO [TVShows] bober100 Скачать
1 | 0
Зарубежные сериалы [ 5.34 GB ] Судная ночь / The Purge / Сезон: 1 / Серии: 1-10 из 10 [2018 WEBRip] MVO [LostFilm] bober100 Скачать
1 | 0


>> Регистрируемся здесь <<






Отзывы и комментарии о схеме читаем и пишем здесь: ---> Отзывы и комментарии о схеме

Новые благодарочки в телеграм довольных пользователей:
скриншот   скриншот   скриншот   скриншот   скриншот
    Дорогой пользователь! Огромная просьба, поблагодарите релизера, оцените раздачу и оставьте свои комментарий, если Вы скачали Судная ночь через торрент бесплатно! Внесите свою лепту в развитие PiratBit!
    Комментировать посты могут только пользователи прошедшие не сложную регистрацию
    Показать сообщения:    

    Судная ночь через торрент
    Скачать бесплатно Судная ночь
    Судная ночь скачать торрент
    Судная ночь смотреть онлайн
    Cкачать фильм Судная ночь бесплатно
    Судная ночь скачать торрент в хорошем качестве
    Судная ночь смотреть онлайн бесплатно в хорошем качестве


    Вы не можете начинать темы
    Вы не можете отвечать на сообщения
    Вы не можете редактировать свои сообщения
    Вы не можете удалять свои сообщения
    Вы не можете голосовать в опросах
    Вы не можете прикреплять файлы к сообщениям
    Вы можете скачивать файлы