Лицензия

30

iTunes

мы

iTunes

1

1 сезон

Чернобыль

1 сезон

Ральф против интернета

MVO

Покемон. Детектив Пикачу

8 сезон

Игра престолов

iTunes

1+1

ИГРА 18+

pack

ВАЖНО

!!Акция!!

Alien_RageХит недели

RePack

Resident Evil 21
pack

RePack

Metro:Exodus

!!Акция!!

Alien_Rage

RePack

fifa19

RePack

Assassins Creed: Odyssey

RePack

NEED FOR SPEED™ PAYBACK

3 сезон

9 сезон

Бесстыжие 9 сезон

Все сериалы

все сериалы на PB.wtf

RePack

FAR CRY 5
Ребята, катастрофически не хватает 2730р. для оплаты серверов за МАЙ (всвязи с блокировками трафик упал в 3 раза), 1-2р., выручайте.
  

Милые обманщицы: Перфекционистки / Pretty Little Liars: The Perfectionists / Сезон: 1 / Серии: 1-10 из 10 ( Элизабет Аллен, Норман Бакли, Шири Эпплби) [2019, триллер, драма, мелодрама, криминал, детектив, WEB-DLRip] MVO [Jaskier] piratbit.cc

Милые обманщицы: Перфекционистки через торрент piratbit.cc

Размер: 5.55 GB | Добавлен: 23 д. назад | Торрент скачан:6 раз
Скачать  

03-04-2019 02:11 Милые обманщицы: Перфекционистки Скачать торрент  

Милые обманщицы: Перфекционистки / Pretty Little Liars: The Perfectionists Год выпуска: 2019
Страна: США
Жанр: Триллер, драма, мелодрама, криминал, детектив
Продолжительность: ~ 00:45:00
Перевод: Профессиональный (многоголосый закадровый) | Jaskier
Субтитры: отсутствуют

Режиссёр: Элизабет Аллен, Норман Бакли, Шири Эпплби

В ролях:

Эли Браун, София Карсон, Хейли Эрин, Грэм Томас Кинг, Крис Мэйсон, Сидни Парк, Джанел Пэрриш, Саша Питерс, Келли Разерфорд, Эван Биттенкур

Описание:

Все в городке Бикон Хейтс - от престижного колледжа до суперуспешных резидентов - кажется идеальным. Но ничто в этом городе не является тем, чем кажется. Маниакальное стремление жителей быть безупречными приводит к убийству. Однако найти виновного в преступлении будет непросто - у каждого подозреваемого в этом деле есть масса секретов и прочное алиби.

rating

Качество: WEB-DLRip
Формат: AVI

Видео: XviD, 720x400 (16:9), 23,976 кадров/сек, ~1500 Кбит/сек
Аудио Rus: MP3, 48 kHz, 2 ch, 128 Кбит/сек
Аудио Eng: MP3, 48 kHz, 2 ch, 128 Кбит/сек


Реклама: Присутствует звуковая (два раза в начале и конце по 10 сек.)
Общее
Полное имя : G:\Jaskier\Pretty.Little.Liars.The.Perfectionists Season 1 (WEB-DLRip l 400p l Jaskier)\Pretty.Little.Liars.The.Perfectionists.S01E01.WEB-DLRip.Jaskier.avi
Формат : AVI
Формат/Информация : Audio Video Interleave
Размер файла : 551 Мбайт
Продолжительность : 43 м. 32 с.
Общий поток : 1770 Кбит/сек
Программа кодирования : VirtualDubMod 1.5.10.2 (build 2540/release)
Библиотека кодирования : VirtualDubMod build 2540/release

Видео
Идентификатор : 0
Формат : MPEG-4 Visual
Профиль формата : Advanced Simple@L5
Настройки формата : BVOP2
Параметр BVOP формата : 2
Параметр QPel формата : Нет
Параметр GMC формата : Без точки перехода
Параметр матрицы формата : Default (MPEG)
Идентификатор кодека : XVID
Идентификатор кодека/Подсказка : XviD
Продолжительность : 43 м. 32 с.
Битрейт : 1500 Кбит/сек
Ширина : 720 пикселей
Высота : 400 пикселей
Соотношение сторон : 16:9
Частота кадров : 23,976 (24000/1001) кадра/сек
Цветовое пространство : YUV
Субдискретизация насыщенности : 4:2:0
Битовая глубина : 8 бит
Тип развёртки : Прогрессивная
Метод сжатия : С потерями
Бит/(Пиксели*Кадры) : 0.217
Размер потока : 467 Мбайт (85%)
Библиотека кодирования : XviD 1.2.1 (UTC 2008-12-04)

Аудио #1
Идентификатор : 1
Формат : MPEG Audio
Версия формата : Version 1
Профиль формата : Layer 3
Настройки формата : Joint stereo / MS Stereo
Идентификатор кодека : 55
Идентификатор кодека/Подсказка : MP3
Продолжительность : 43 м. 32 с.
Вид битрейта : Постоянный
Битрейт : 128 Кбит/сек
Каналы : 2 канала
Частота : 48,0 КГц
Частота кадров : 41,667 кадра/сек (1152 SPF)
Метод сжатия : С потерями
Размер потока : 39,9 Мбайт (7%)
Выравнивание : Соединение по промежуткам
Продолжительность промежутка : 42 мс. (1,00 видеокадр)
Время предзагрузки промежутка : 504 мс.
Библиотека кодирования : LAME3.100
Настройки программы : -m j -V 4 -q 3 -lowpass 17 -b 128

Аудио #2
Идентификатор : 2
Формат : MPEG Audio
Версия формата : Version 1
Профиль формата : Layer 3
Настройки формата : Joint stereo / MS Stereo
Идентификатор кодека : 55
Идентификатор кодека/Подсказка : MP3
Продолжительность : 43 м. 32 с.
Вид битрейта : Постоянный
Битрейт : 128 Кбит/сек
Каналы : 2 канала
Частота : 48,0 КГц
Частота кадров : 41,667 кадра/сек (1152 SPF)
Метод сжатия : С потерями
Размер потока : 39,9 Мбайт (7%)
Выравнивание : Соединение по промежуткам
Продолжительность промежутка : 42 мс. (1,00 видеокадр)
Время предзагрузки промежутка : 504 мс.
Библиотека кодирования : LAME3.100
Настройки программы : -m j -V 4 -q 3 -lowpass 17 -b 128
Когда раздача ведётся путём добавления новых серий, при каждом добавлении создётся новый торрент. Чтобы начать докачку новой серии, пользователям необходимо сделать следующее:
(1) остановить скачивание,
(2) удалить старый торрент у себя из клиента (старые серии удалять не надо),
(3) скачать новый торрент и запустить его у себя в клиенте вместо старого, при этом указать клиенту путь в старую папку, куда и должно происходить скачивание новых серий.
Ваш клиент при этом должен произвести хеширование (проверку) старой папки (если не производит сам - помогите ему сделать это), и будет докачивать только те серии, которых у вас ещё нет. Старые серии при этом не удаляются, а продолжают раздаваться!
Eсли вы уже удалили старые серии, то предотвратить повторную закачку старых серий можно, отжав галочку в соответсвующих местах при запуске нового торрента. По возможности, желательно не удалять старые серии как можно дольше, чтобы релизёр не столько продолжал раздавать старые серии, а смог сконцентрироваться на новых.
piratbit.cc



Скачать Милые обманщицы: Перфекционистки через торрент https://i110.fastpic.ru/big/2019/0325/00/c2d8b9dfd01b188d9686ba3350f2dc00.jpg Скачать фильм Милые обманщицы: Перфекционистки через торрент бесплантно в хорошем качестве Описание:Все в городке Бикон Хейтс - от престижного колледжа до суперуспешных резидентов - кажется идеальным. Но ничто в этом городе не ... 10 10 3
Торрент: Зарегистрирован [2019-05-26 23:46] · скачан: 6 раз
Статус: √ проверено
Размер: 5.55 GB
Как cкачать? Как скачать Милые обманщицы: Перфекционистки через торрент | qTorrent

% Раздел Тема Автор DL S | L
Зарубежные сериалы [ 10.39 GB ] Милые обманщицы: Перфекционистки / Pretty Little Liars: The Perfectionists / Сезон: 1 / Серии: 1-10 из 10 [2019 WEB-DL 720p] MVO [Jaskier] bober100 Скачать
1 | 0
Зарубежные сериалы [ 23.79 GB ] Милые обманщицы: Перфекционистки / Pretty Little Liars: The Perfectionists / Сезон: 1 / Серии: 1-10 из 10 [2019 WEBRip 1080p] [MVO] killermax2013 Скачать
2 | 0


>> Регистрируемся здесь <<






Отзывы и комментарии о схеме читаем и пишем здесь: ---> Отзывы и комментарии о схеме

Новые благодарочки в телеграм довольных пользователей:
скриншот   скриншот   скриншот   скриншот   скриншот
    Дорогой пользователь! Огромная просьба, поблагодарите релизера, оцените раздачу и оставьте свои комментарий, если Вы скачали Милые обманщицы: Перфекционистки через торрент бесплатно! Внесите свою лепту в развитие PiratBit!
    Комментировать посты могут только пользователи прошедшие не сложную регистрацию
    Показать сообщения:    

    Милые обманщицы: Перфекционистки через торрент
    Скачать бесплатно Милые обманщицы: Перфекционистки
    Милые обманщицы: Перфекционистки скачать торрент
    Милые обманщицы: Перфекционистки смотреть онлайн
    Cкачать фильм Милые обманщицы: Перфекционистки бесплатно
    Милые обманщицы: Перфекционистки скачать торрент в хорошем качестве
    Милые обманщицы: Перфекционистки смотреть онлайн бесплатно в хорошем качестве


    Вы не можете начинать темы
    Вы не можете отвечать на сообщения
    Вы не можете редактировать свои сообщения
    Вы не можете удалять свои сообщения
    Вы не можете голосовать в опросах
    Вы не можете прикреплять файлы к сообщениям
    Вы можете скачивать файлы