Лицензия

30

iTunes

мы

iTunes

1

1 сезон

Чернобыль

1 сезон

Ральф против интернета

MVO

Покемон. Детектив Пикачу

8 сезон

Игра престолов

iTunes

1+1

ИГРА 18+

pack

ВАЖНО

!!Акция!!

Alien_RageХит недели

RePack

Resident Evil 21
pack

RePack

Metro:Exodus

!!Акция!!

Alien_Rage

RePack

fifa19

RePack

Assassins Creed: Odyssey

RePack

NEED FOR SPEED™ PAYBACK

3 сезон

9 сезон

Бесстыжие 9 сезон

Все сериалы

все сериалы на PB.wtf

RePack

FAR CRY 5
Ребята, катастрофически не хватает 2730р. для оплаты серверов за МАЙ (всвязи с блокировками трафик упал в 3 раза), 1-2р., выручайте.
  

Ифигения / Ifigeneia (Михалис Какояннис) [1977, драма, BDRip 720p by msltel] VO piratbit.cc

Ифигения через торрент piratbit.cc

Размер: 4.67 GB | Добавлен: 1 мес. 11 д. назад | Торрент скачан:12 раз
Скачать  

08-05-2019 09:30 Ифигения Скачать торрент  

Название: Ифигения
Оригинальное название: Ifigeneia
Год выпуска: 1977
Страна: Греция
Жанр: драма
Продолжительность: 02:09:17
Перевод: закадровый одноголосый

Режиссер: Михалис Какояннис
В ролях: Ирен Папас, Татиана Папамосху. Костас Казакос, Костас Каррас, Христос Цагас, Панос Михалопулос, Димитрий Аронис, Кристос Тсагас, Георгос Эконому, Эрини Кумариану, Ангелос Яннулис, Элеонора Статопулу, Йоргос Чаралабидис, Дмитрий Аронис, Каити Манолидаки, София Сфироэра, Тасос Лертас, Танасис Лагарос, Макис Мурселас, Патриция Анчира, Элисавет Вулгари, Васия Конста

О фильме: Греческая армия готовится к отплытию на великую битву, но ветры отказываются дуть. Их лидер, царь Агамемнон, стремясь обеспечить лучшим питанием свою армию, случайно убивает лань, посвящённую Артемиде. В наказание царь жертвует своей дочерью Ифигенией... По мотивам древнегреческой трагедии Еврипида "Ифигения в Авлиде".



Качество: BDRip 720p
Формат: MKV
Видео: MPEG-4 AVC, 4782 Kбит/с, 1196x720, 23,976 кадр/с
Аудио 1: русский, AC3, 192 kbps, 2 ch, 48 kHz [закадровый одноголосый, Andi по русским субтитрам oldys на основе перевода И. Анненского]
Аудио 2: греческий, AC3, 192 kbps, 2 ch, 48 kHz [оригинал]
Субтитры 1: русские
Субтитры 2: английские
Главы/чаптеры
Общее
Уникальный идентификатор : 234091235736951284120031838372964729328 (0xB01C55020B4A90E6AF60A5A1262A01F0)
Полное имя : D:\Video\Ифигения.1977.BDRip 720p by msltel.mkv
Формат : Matroska
Версия формата : Version 4
Размер файла : 4,67 Гбайт
Продолжительность : 2 ч. 9 м.
Общий поток : 5167 Кбит/сек
Название фильма : Rip by msltel
Дата кодирования : UTC 2019-05-07 09:27:53
Программа кодирования : mkvmerge v8.2.0 ('World of Adventure') 64bit
Библиотека кодирования : libebml v1.3.1 + libmatroska v1.4.2

Видео
Идентификатор : 1
Формат : AVC
Формат/Информация : Advanced Video Codec
Профиль формата : High@L4.1
Настройки формата : CABAC / 9 Ref Frames
Параметр CABAC формата : Да
Параметр RefFrames формата : 9 кадров
Идентификатор кодека : V_MPEG4/ISO/AVC
Продолжительность : 2 ч. 9 м.
Битрейт : 4782 Кбит/сек
Ширина : 1196 пикселей
Высота : 720 пикселей
Соотношение сторон : 5:3
Режим частоты кадров : Постоянный
Частота кадров : 23,976 (24000/1001) кадра/сек
Цветовое пространство : YUV
Субдискретизация насыщенности : 4:2:0
Битовая глубина : 8 бит
Тип развёртки : Прогрессивная
Бит/(Пиксели*Кадры) : 0.232
Размер потока : 4,32 Гбайт (93%)
Библиотека кодирования : x264 core 157 r2935 545de2f
Настройки программы : cabac=1 / ref=9 / deblock=1:-2:-2 / analyse=0x3:0x113 / me=umh / subme=11 / psy=1 / psy_rd=1.00:0.15 / mixed_ref=1 / me_range=32 / chroma_me=1 / trellis=2 / 8x8dct=1 / cqm=0 / deadzone=21,11 / fast_pskip=0 / chroma_qp_offset=-3 / threads=6 / lookahead_threads=1 / sliced_threads=0 / nr=0 / decimate=1 / interlaced=0 / bluray_compat=0 / constrained_intra=0 / bframes=9 / b_pyramid=2 / b_adapt=2 / b_bias=0 / direct=1 / weightb=1 / open_gop=0 / weightp=2 / keyint=230 / keyint_min=23 / scenecut=40 / intra_refresh=0 / rc_lookahead=40 / rc=crf / mbtree=1 / crf=20.0 / qcomp=0.60 / qpmin=0 / qpmax=69 / qpstep=4 / vbv_maxrate=50000 / vbv_bufsize=62500 / crf_max=0.0 / nal_hrd=none / filler=0 / ip_ratio=1.40 / aq=1:1.00
Язык : grc
Default : Да
Forced : Нет

Аудио #1
Идентификатор : 2
Формат : AC-3
Формат/Информация : Audio Coding 3
Коммерческое название : Dolby Digital
Идентификатор кодека : A_AC3
Продолжительность : 2 ч. 8 м.
Вид битрейта : Постоянный
Битрейт : 192 Кбит/сек
Каналы : 2 канала
ChannelLayout : L R
Частота : 48,0 КГц
Частота кадров : 31,250 кадров/сек (1536 SPF)
Битовая глубина : 16 бит
Метод сжатия : С потерями
Размер потока : 176 Мбайт (4%)
Заголовок : Andi по русским субтитрам oldys на основе перевода И. Анненского
Язык : Russian
ServiceKind/String : Complete Main
Default : Да
Forced : Нет

Аудио #2
Идентификатор : 3
Формат : AC-3
Формат/Информация : Audio Coding 3
Коммерческое название : Dolby Digital
Идентификатор кодека : A_AC3
Продолжительность : 2 ч. 9 м.
Вид битрейта : Постоянный
Битрейт : 192 Кбит/сек
Каналы : 2 канала
ChannelLayout : L R
Частота : 48,0 КГц
Частота кадров : 31,250 кадров/сек (1536 SPF)
Битовая глубина : 16 бит
Метод сжатия : С потерями
Размер потока : 178 Мбайт (4%)
Заголовок : original
Язык : grc
ServiceKind/String : Complete Main
Default : Нет
Forced : Нет

Текст #1
Идентификатор : 4
Формат : UTF-8
Идентификатор кодека : S_TEXT/UTF8
Идентификатор кодека/Информация : UTF-8 Plain Text
Продолжительность : 2 ч. 4 м.
Битрейт : 55 бит/сек
ElementCount : 970
Размер потока : 51,1 Кбайт (0%)
Заголовок : русские
Язык : Russian
Default : Нет
Forced : Нет

Текст #2
Идентификатор : 5
Формат : UTF-8
Идентификатор кодека : S_TEXT/UTF8
Идентификатор кодека/Информация : UTF-8 Plain Text
Продолжительность : 2 ч. 7 м.
Битрейт : 34 бит/сек
ElementCount : 982
Размер потока : 32,7 Кбайт (0%)
Заголовок : английские
Язык : English
Default : Нет
Forced : Нет

Меню
00:00:00.000 : en:Chapter 01
00:15:23.964 : en:Chapter 02
00:31:05.738 : en:Chapter 03
00:46:58.816 : en:Chapter 04
01:03:29.222 : en:Chapter 05
01:21:34.598 : en:Chapter 06
01:36:45.216 : en:Chapter 07
01:52:19.357 : en:Chapter 08
piratbit.cc



Скачать Ифигения через торрент https://b.radikal.ru/b30/1905/04/fcf4efd1cfe1.jpg Скачать фильм Ифигения через торрент бесплантно в хорошем качестве О фильме: Греческая армия готовится к отплытию на великую битву, но ветры отказываются дуть. Их лидер, царь Агамемнон, стремясь обеспечить ... 5 10 1
Торрент: Зарегистрирован [2019-05-08 09:30] · скачан: 12 раз
Статус: √ проверено
Размер: 4.67 GB
Как cкачать? Как скачать Ифигения через торрент | qTorrent

% Раздел Тема Автор DL S | L
Фильмы [HD 720p, 1080p] (Звук Cam, VO, DVO) [ 12.33 GB ] Ифигения / Ifigeneia [1977 BDRip 1080p by msltel] VO msltel Скачать
1 | 0


>> Регистрируемся здесь <<






Отзывы и комментарии о схеме читаем и пишем здесь: ---> Отзывы и комментарии о схеме

Новые благодарочки в телеграм довольных пользователей:
скриншот   скриншот   скриншот   скриншот   скриншот
    Дорогой пользователь! Огромная просьба, поблагодарите релизера, оцените раздачу и оставьте свои комментарий, если Вы скачали Ифигения через торрент бесплатно! Внесите свою лепту в развитие PiratBit!
    Комментировать посты могут только пользователи прошедшие не сложную регистрацию
    Показать сообщения:    

    Ифигения через торрент
    Скачать бесплатно Ифигения
    Ифигения скачать торрент
    Ифигения смотреть онлайн
    Cкачать фильм Ифигения бесплатно
    Ифигения скачать торрент в хорошем качестве
    Ифигения смотреть онлайн бесплатно в хорошем качестве


    Вы не можете начинать темы
    Вы не можете отвечать на сообщения
    Вы не можете редактировать свои сообщения
    Вы не можете удалять свои сообщения
    Вы не можете голосовать в опросах
    Вы не можете прикреплять файлы к сообщениям
    Вы можете скачивать файлы