Лицензия

30

iTunes

мы

iTunes

1

1 сезон

Чернобыль

1 сезон

Ральф против интернета

MVO

Покемон. Детектив Пикачу

8 сезон

Игра престолов

iTunes

1+1

ИГРА 18+

pack

ВАЖНО

!!Акция!!

Alien_RageХит недели

RePack

Resident Evil 21
pack

RePack

Metro:Exodus

!!Акция!!

Alien_Rage

RePack

fifa19

RePack

Assassins Creed: Odyssey

RePack

NEED FOR SPEED™ PAYBACK

3 сезон

9 сезон

Бесстыжие 9 сезон

Все сериалы

все сериалы на PB.wtf

RePack

FAR CRY 5
Ребята, катастрофически не хватает 2730р. для оплаты серверов за МАЙ (всвязи с блокировками трафик упал в 3 раза), 1-2р., выручайте.
  

Похитители носков / Lichozrouti (Галина Миклинова / Galina Miklínová) [2016, мультфильм, фэнтези, приключения, семейный, WEBRip 1080p] 2x[Dub] (Rus, Ukr) piratbit.cc

Похитители носков через торрент piratbit.cc

Раздают: 7 [ 0 KB/s ]
Размер: 2.64 GB | Добавлен: 1 мес. 15 д. назад | Торрент скачан:197 раз
Скачать  

10-05-2019 17:28 Похитители носков Скачать торрент  

Похитители носков / Lichozrouti

Страна: Чехия, Словакия, Хорватия
Жанр: мультфильм, фэнтези, приключения, семейный
Год выпуска: 2016
Продолжительность: 01:26:21
Перевод 1: Дублированный
Перевод 2: Украинский (дублированный)
Субтитры: русские

Режиссер: Галина Миклинова / Galina Miklínová
В ролях: Криштоф Гадек, Ян Максиан, Давид Новотны, Онджей Троян, Марек Тацлик, Татьяна Вильгельмова, Йозеф Шомр, Алес Найбрт, Матей Рупперт, Вацлав Коубек
Описание: Может быть, у вас вчера или в эту самую минуту пропал носок. Кто в этом виноват? Носкоед! Загадочное и неуловимое существо, которое пожирает один носок из пары.
скриншот  

Качество видео: WEBRip 1080p
Формат видео: MKV

Видео: 1920x1080 (16:9), 24.000 fps, AVC, 3993 Кбит/сек
Аудио 1: Russian, 48.0 KHz, AAC LC, 2 ch ~192 kbps | rus
Аудио 2: Ukrainian, 48.0 KHz, AAC LC, 2 ch ~192 kbps | ukr
Сэмпл
Формат                                   : Matroska
Версия формата : Version 4
Размер файла : 2,64 Гбайт
Продолжительность : 1 ч. 26 м.
Общий поток : 4380 Кбит/сек
Дата кодирования : UTC 2019-05-09 16:46:37
Программа кодирования : mkvmerge v33.1.0 ('Primrose') 64-bit
Библиотека кодирования : libebml v1.3.7 + libmatroska v1.5.0

Видео
Идентификатор : 1
Формат : AVC
Формат/Информация : Advanced Video Codec
Профиль формата : High@L4
Настройки формата : CABAC / 3 Ref Frames
Параметр CABAC формата : Да
Параметр RefFrames формата : 3 кадра
Параметр GOP формата : M=1, N=72
Идентификатор кодека : V_MPEG4/ISO/AVC
Продолжительность : 1 ч. 26 м.
Битрейт : 3993 Кбит/сек
Ширина : 1920 пикселей
Высота : 1080 пикселей
Соотношение сторон : 16:9
Режим частоты кадров : Постоянный
Частота кадров : 24,000 кадра/сек
Цветовое пространство : YUV
Субдискретизация насыщенности : 4:2:0
Битовая глубина : 8 бит
Тип развёртки : Прогрессивная
Бит/(Пиксели*Кадры) : 0.080
Размер потока : 2,41 Гбайт (91%)
Default : Да
Forced : Нет

Аудио #1
Идентификатор : 2
Формат : AAC LC
Формат/Информация : Advanced Audio Codec Low Complexity
Идентификатор кодека : A_AAC-2
Продолжительность : 1 ч. 26 м.
Битрейт : 192 Кбит/сек
Каналы : 2 канала
ChannelLayout : L R
Частота : 48,0 КГц
Частота кадров : 46,875 кадров/сек (1024 SPF)
Метод сжатия : С потерями
Размер потока : 119 Мбайт (4%)
Язык : Russian
Default : Да
Forced : Нет

Аудио #2
Идентификатор : 3
Формат : AAC LC
Формат/Информация : Advanced Audio Codec Low Complexity
Идентификатор кодека : A_AAC-2
Продолжительность : 1 ч. 26 м.
Битрейт : 192 Кбит/сек
Каналы : 2 канала
ChannelLayout : L R
Частота : 48,0 КГц
Частота кадров : 46,875 кадров/сек (1024 SPF)
Метод сжатия : С потерями
Размер потока : 119 Мбайт (4%)
Язык : Ukrainian
Default : Нет
Forced : Нет

Текст
Идентификатор : 4
Формат : UTF-8
Идентификатор кодека : S_TEXT/UTF8
Идентификатор кодека/Информация : UTF-8 Plain Text
Продолжительность : 1 ч. 23 м.
Битрейт : 84 бит/сек
ElementCount : 919
Размер потока : 52,3 Кбайт (0%)
Язык : Russian
Default : Нет
Forced : Нет
скриншот  скриншот  скриншот  
piratbit.cc



Скачать Похитители носков через торрент https://i2.imageban.ru/out/2019/05/10/69450a37337a9a065d6803a3b74e3347.jpg Скачать фильм Похитители носков через торрент бесплантно в хорошем качестве Описание: Может быть, у вас вчера или в эту самую минуту пропал носок. Кто в этом виноват? Носкоед! Загадочное и неуловимое существо, ... 10 10 5
Торрент: Зарегистрирован [2019-05-10 17:28] · скачан: 197 раз
Статус: √ проверено
Размер: 2.64 GB
Как cкачать? Как скачать Похитители носков через торрент | qTorrent

% Раздел Тема Автор DL S | L
Иностранные мультфильмы [ 1.46 GB ] Похитители носков / Lichozrouti [2016 мультфильм WEB-DLRip] 2x[Dub] killermax2013 Скачать
2 | 0
T Фильмы (мультфильмы) cо спонсором показа (Новинки AVI/MKV) [ 3.12 GB ] Похитители носков / Lichozrouti [2016 мультфильм WEB-DL 720p] DUB [Line] bober100 Скачать
1 | 0


>> Регистрируемся здесь <<






Отзывы и комментарии о схеме читаем и пишем здесь: ---> Отзывы и комментарии о схеме

Новые благодарочки в телеграм довольных пользователей:
скриншот   скриншот   скриншот   скриншот   скриншот

15-05-2019 17:13 Похитители носков Скачать торрент  

Гамняный мульт, не понравился ни детям, ни взрослым. Даже до конца не досмотрелиpiratbit.cc



    Дорогой пользователь! Огромная просьба, поблагодарите релизера, оцените раздачу и оставьте свои комментарий, если Вы скачали Похитители носков через торрент бесплатно! Внесите свою лепту в развитие PiratBit!
    Комментировать посты могут только пользователи прошедшие не сложную регистрацию
    Показать сообщения:    

    Похитители носков через торрент
    Скачать бесплатно Похитители носков
    Похитители носков скачать торрент
    Похитители носков смотреть онлайн
    Cкачать фильм Похитители носков бесплатно
    Похитители носков скачать торрент в хорошем качестве
    Похитители носков смотреть онлайн бесплатно в хорошем качестве


    Вы не можете начинать темы
    Вы не можете отвечать на сообщения
    Вы не можете редактировать свои сообщения
    Вы не можете удалять свои сообщения
    Вы не можете голосовать в опросах
    Вы не можете прикреплять файлы к сообщениям
    Вы можете скачивать файлы