iTunes

1+1

iTunes

мы

iTunes

1

1 сезон

Чернобыль

1 сезон

Ральф против интернета

Лицензия

ПШазам

8 сезон

Игра престолов

Лицензия

30
pack

ВАЖНО

!!Акция!!

Alien_RageХит недели

RePack

Resident Evil 21

ИГРА 18+

pack

RePack

Metro:Exodus

!!Акция!!

Alien_Rage

RePack

fifa19

RePack

Assassins Creed: Odyssey

RePack

NEED FOR SPEED™ PAYBACK

3 сезон

9 сезон

Бесстыжие 9 сезон

Все сериалы

все сериалы на PB.wtf

RePack

FAR CRY 5
Ребята, катастрофически не хватает 2730р. для оплаты серверов за ИЮНЬ (всвязи с блокировками трафик упал в 3 раза), 1-2р., выручайте.
  

Виски Кавалер / Whiskey Cavalier / Сезон: 1 / Серии: 1-13 из 13 (Питер Атенсио, Джон Ист, Роб Бэйли) [2019, Боевик, триллер, драма, комедия, приключения, WEB-DL 1080p] [Dub] (SDI Media) piratbit.cc

Виски Кавалер через торрент piratbit.cc

Качают: 1 [ 305 KB/s ]
Размер: 34.36 GB | Добавлен: 4 д. назад | Торрент скачан:1 раз
Скачать  

12-03-2019 21:46 Виски Кавалер Скачать торрент  

Виски Кавалер | Whiskey Cavalier
Год выпуска: 2019
Страна: США
Жанр: Боевик, триллер, драма, комедия, приключения
Продолжительность: ~ 00:43:00
Перевод: Профессиональный (дублированный) | SDI Media
Режиссёр: Питер Атенсио, Джон Ист, Роб Бэйли
В ролях: Скотт Фоули, Лорен Кохэн, Ана Ортис, Тайлер Джеймс Уильямс, Вир Даc, Дилан Уолш, Джош Хопкинс, Дэвид Финн, Кристос Василопулос, Аликс Бенезек, Ядран Малжкович и др.
Описание: Агент ФБР Уилл Чейз, известный под кодовым именем Виски Кавалер, — парень что надо. Бьёт наотмашь, стреляет наповал и живёт жизнью, полной приключений. Одна проблема: Чейз сентиментален, регулярно поддаётся чувствам и даже может всплакнуть из-за бросившей его подружки. В напарники ему назначают оперативницу ЦРУ Франческу «Фрэнки» Троубридж. Она прагматична, бескомпромиссна и сопли пускать не будет.
Вместе с ней Чейз организует команду шпионов, периодически спасает мир, ищет баланс между флиртом и дружбой, а главное — учится не давать волю эмоциям. Последнее окажется почти невыполнимым.


Качество: WEB-DL 1080p (AMAZON)
Формат: MKV
Видео: H.264/AVC, 1920x1080 (16:9), 23.976 кадров/сек, ~7371 Кбит/сек, ~0.148 bit/pixel
Аудио Rus: AC3, 48,0 kHz, 2 ch, 192 Кбит/сек | SDI Media
Аудио Eng: E-AC3, 48 kHz, 3/2 (L,C,R,l,r) + LFE ch, 640 Кбит/сек
Субтитры: Русские (Full), английские (SDH)
Реклама: Отсутствует
• Запись и работа с звуком - BenderBEST
• Выполнен релиз под спонсорством: unitedbits, expresso07

Общее
Уникальный идентификатор : 212344182269415974760653025581945029233 (0x9FC0007D7ED743A7B969B7EDCDB38271)
Полное имя : S:\Whiskey.Cavalier.S01.1080p.AMZN.WEB-DL.Rus.Eng_TeamHD\Whiskey.Cavalier.S01E01.Pilot.1080p.AMZN.WEB-DL.Rus.Eng_TeamHD.mkv
Формат : Matroska
Версия формата : Version 4
Размер файла : 2,47 Гбайт
Продолжительность : 43 м. 7 с.
Общий поток : 8206 Кбит/сек
Название фильма : Whisker Cavalier S01E01 - ReJliz TeamHD by BenderBEST
Дата кодирования : UTC 2019-03-09 19:18:54
Программа кодирования : mkvmerge v8.3.0 ('Over the Horizon') 64bit
Библиотека кодирования : libebml v1.3.1 + libmatroska v1.4.2

Видео
Идентификатор : 1
Формат : AVC
Формат/Информация : Advanced Video Codec
Профиль формата : High@L4
Настройки формата : CABAC / 4 Ref Frames
Параметр CABAC формата : Да
Параметр RefFrames формата : 4 кадра
Идентификатор кодека : V_MPEG4/ISO/AVC
Продолжительность : 43 м. 7 с.
Вид битрейта : Постоянный
Битрейт : 7371 Кбит/сек
Номинальный битрейт : 10000 Кбит/сек
Ширина : 1920 пикселей
Высота : 1080 пикселей
Соотношение сторон : 16:9
Режим частоты кадров : Постоянный
Частота кадров : 23,976 (24000/1001) кадра/сек
Цветовое пространство : YUV
Субдискретизация насыщенности : 4:2:0
Битовая глубина : 8 бит
Тип развёртки : Прогрессивная
Бит/(Пиксели*Кадры) : 0.148
Размер потока : 2,22 Гбайт (90%)
Язык : English
Default : Да
Forced : Да
Цветовой диапазон : Limited
Основные цвета : BT.709
Характеристики трансфера : BT.709
Коэффициенты матрицы : BT.709

Аудио #1
Идентификатор : 2
Формат : AC-3
Формат/Информация : Audio Coding 3
Коммерческое название : Dolby Digital
Идентификатор кодека : A_AC3
Продолжительность : 43 м. 7 с.
Вид битрейта : Постоянный
Битрейт : 192 Кбит/сек
Каналы : 2 канала
Channel layout : L R
Частота : 48,0 КГц
Частота кадров : 31,250 кадров/сек (1536 SPF)
Битовая глубина : 16 бит
Метод сжатия : С потерями
Размер потока : 59,2 Мбайт (2%)
Заголовок : AC3 2.0 @ 192 kbps - DUB, SDI Media
Язык : Russian
ServiceKind/String : Complete Main
Default : Да
Forced : Да

Аудио #2
Идентификатор : 3
Формат : E-AC-3
Формат/Информация : Enhanced AC-3
Коммерческое название : Dolby Digital Plus
Идентификатор кодека : A_EAC3
Продолжительность : 43 м. 7 с.
Вид битрейта : Постоянный
Битрейт : 640 Кбит/сек
Каналы : 6 каналов
Channel layout : L R C LFE Ls Rs
Частота : 48,0 КГц
Частота кадров : 31,250 кадров/сек (1536 SPF)
Метод сжатия : С потерями
Размер потока : 197 Мбайт (8%)
Заголовок : EAC3 5.1 @ 640 kbps
Язык : English
ServiceKind/String : Complete Main
Default : Нет
Forced : Нет

Текст #1
Идентификатор : 4
Формат : UTF-8
Идентификатор кодека : S_TEXT/UTF8
Идентификатор кодека/Информация : UTF-8 Plain Text
Продолжительность : 42 м. 17 с.
Битрейт : 102 бит/сек
ElementCount : 687
Размер потока : 31,6 Кбайт (0%)
Заголовок : Full
Язык : Russian
Default : Нет
Forced : Нет

Текст #2
Идентификатор : 5
Формат : UTF-8
Идентификатор кодека : S_TEXT/UTF8
Идентификатор кодека/Информация : UTF-8 Plain Text
Продолжительность : 42 м. 57 с.
Битрейт : 88 бит/сек
ElementCount : 1039
Размер потока : 27,8 Кбайт (0%)
Заголовок : SDH
Язык : English
Default : Нет
Forced : Нет

скриншот  скриншот  скриншот  

Внимание! Раздача ведётся путём добавления новых серий; при каждом добавлении создаётся новый торрент. Чтобы начать докачку новой серии, пользователям необходимо сделать следующее:
(1) остановить скачивание,
(2) удалить старый торрент у себя из клиента (старые серии удалять не надо),
(3) скачать новый торрент и запустить его у себя в клиенте вместо старого, при этом указать клиенту путь в старую папку куда и должно происходить скачивание новых серий.

Ваш клиент при этом должен произвести хеширование (проверку) старой папки (если не производит сам - помогите ему сделать это), и будет докачивать только те серии которых у вас ещё нет. Старые серии при этом не удаляются, а продолжают раздаваться!

Eсли вы уже удалили старые серии, то предотвратить повторную закачку старых серий можно, отжав галочку в соответствующих местах при запуске нового торрента. По возможности, желательно не удалять старые серии как можно дольше чтобы релизёр не столько продолжал раздавать старые серии, а смог сконцентрироваться на новых.
piratbit.cc



Скачать Виски Кавалер через торрент https://i110.fastpic.ru/big/2019/0226/a5/e1f5f0bf5337c80830a7740b7ffa81a5.png Скачать фильм Виски Кавалер через торрент бесплантно в хорошем качестве Описание: Агент ФБР Уилл Чейз, известный под кодовым именем Виски Кавалер, — парень что надо. Бьёт наотмашь, стреляет наповал и живёт ... 10 10 2
Торрент: Зарегистрирован [2019-07-14 15:21] · скачан: 1 раз
Статус: √ проверено
Размер: 34.36 GB
Как cкачать? Как скачать Виски Кавалер через торрент | qTorrent

% Раздел Тема Автор DL S | L
Зарубежные сериалы [ 6.89 GB ] Виски Кавалер / Whiskey Cavalier / Сезон: 1 / Серии: 1-13 из 13 [2019 WEB-DLRip] DUB [SDI Media] bober100 Скачать
2 | 1
Зарубежные сериалы [ 35.16 GB ] Виски Кавалер / Whiskey Cavalier / Сезон: 1 / Серии: 1-13 из 13 [2019 WEB-DL 1080p] MVO [TVShows] bober100 Скачать
1 | 0
Зарубежные сериалы [ 18.01 GB ] Виски Кавалер / Whiskey Cavalier / Сезон 1 / Серии 1-13 из 13 [2019 WEB-DL 720p] [MVO] killermax2013 Скачать
3 | 0
Зарубежные сериалы [ 6.76 GB ] Виски Кавалер / Whiskey Cavalier / Сезон: 1 / Серии: 1-13 из 13 [2019 WEB-DLRip] MVO [Jaskier] bober100 Скачать
2 | 0
Зарубежные сериалы [ 13.9 GB ] Виски Кавалер / Whiskey Cavalier / Сезон: 1 / Серии: 1-13 из 13 [2019 WEB-DL 720p] MVO [Jaskier] bober100 Скачать
1 | 0
Зарубежные сериалы [ 595 MB ] Виски Кавалер / Whiskey Cavalier / Сезон: 1 / Серии: 1 из 13 [2019 WEB-DLRip] MVO [NewStudio] bober100 Скачать
1 | 0
Зарубежные сериалы [ 1.46 GB ] Виски Кавалер / Whiskey Cavalier / Сезон: 1 / Серии: 1 из 13 [2019 WEB-DL 720p] MVO [NewStudio] bober100 Скачать
2 | 0


>> Регистрируемся здесь <<






Отзывы и комментарии о схеме читаем и пишем здесь: ---> Отзывы и комментарии о схеме

Новые благодарочки в телеграм довольных пользователей:
скриншот   скриншот   скриншот   скриншот   скриншот
    Дорогой пользователь! Огромная просьба, поблагодарите релизера, оцените раздачу и оставьте свои комментарий, если Вы скачали Виски Кавалер через торрент бесплатно! Внесите свою лепту в развитие PiratBit!
    Комментировать посты могут только пользователи прошедшие не сложную регистрацию
    Показать сообщения:    

    Виски Кавалер через торрент
    Скачать бесплатно Виски Кавалер
    Виски Кавалер скачать торрент
    Виски Кавалер смотреть онлайн
    Cкачать фильм Виски Кавалер бесплатно
    Виски Кавалер скачать торрент в хорошем качестве
    Виски Кавалер смотреть онлайн бесплатно в хорошем качестве


    Вы не можете начинать темы
    Вы не можете отвечать на сообщения
    Вы не можете редактировать свои сообщения
    Вы не можете удалять свои сообщения
    Вы не можете голосовать в опросах
    Вы не можете прикреплять файлы к сообщениям
    Вы можете скачивать файлы