Лицензия

30

iTunes

мы

iTunes

1

1 сезон

Чернобыль

1 сезон

Ральф против интернета

MVO

Покемон. Детектив Пикачу

8 сезон

Игра престолов

iTunes

1+1

ИГРА 18+

pack

ВАЖНО

!!Акция!!

Alien_RageХит недели

RePack

Resident Evil 21
pack

RePack

Metro:Exodus

!!Акция!!

Alien_Rage

RePack

fifa19

RePack

Assassins Creed: Odyssey

RePack

NEED FOR SPEED™ PAYBACK

3 сезон

9 сезон

Бесстыжие 9 сезон

Все сериалы

все сериалы на PB.wtf

RePack

FAR CRY 5
Ребята, катастрофически не хватает 2730р. для оплаты серверов за МАЙ (всвязи с блокировками трафик упал в 3 раза), 1-2р., выручайте.
  

Дар (Михаил Кукушкин) [2019, комедия, TS 720p] piratbit.cc

Дар через торрент piratbit.cc

Раздают: 1 [ 0 KB/s ]
Размер: 2.59 GB | Добавлен: 1 мес. назад | Торрент скачан:42 раза
Скачать  

19-05-2019 05:42 Дар Скачать торрент  

Дар Год выпуска: 2019
Страна: Россия
Жанр: комедия
Продолжительность: 01:31:14
Перевод: Не требуется
Субтитры: отсутствуют

Режиссер: Михаил Кукушкин



В ролях:

Алексей Колубков, Юрий Оборотов, Владимир Карпук, Валерия Дергилева, Светлана Бобкина, Евгений Зеленов, Ульяна Глушкова, Алёна Константинова, Виктория Пятакина

Описание:

Толя Сидоров - простой рабочий предпенсионного возраста из российской глубинки - неожиданно открывает у себя талант художника и становится сенсацией в мире современного искусства. А все это из-за того, что создание «шедевров» происходит в очень интимный момент...

Слава о необычном художнике разлетается по Интернету, и на выставку уринальной живописи Анатолия приезжают ценители даже из Москвы. Как в русской сказке, на героя чудесным образом сваливается признание и деньги, но Толя предпочитает сохранять инкогнито, пытаясь понять, а творчество ли это. Да и мужики с завода засмеют, если узнают.

Качество: TS 720p
Формат: MKV

Видео: h.264,3 681 Кбит/с, 1280x536
Аудио: Русский, (AC3, 2 ch, 384 Кбит/с)
скриншот  скриншот  скриншот  

Общее
Уникальный идентификатор : 184799800623139655402860138507425005535 (0x8B0725A011560BAAAAC0A3C8CA1BBFDF)
Полное имя : D:\Dar.2O19.O.TS.72Op.mkv
Формат : Matroska
Версия формата : Version 2
Размер файла : 2,59 Гбайт
Продолжительность : 1 ч. 31 м.
Режим общего битрейта : Переменный
Общий поток : 4067 Кбит/сек
Дата кодирования : UTC 2019-05-17 13:02:03
Программа кодирования : mkvmerge v8.3.0 ('Over the Horizon') 64bit
Библиотека кодирования : libebml v1.3.1 + libmatroska v1.4.2

Видео
Идентификатор : 1
Формат : AVC
Формат/Информация : Advanced Video Codec
Профиль формата : High@L4.1
Параметр CABAC формата : Да
Параметр RefFrames формата : 4 кадра
Идентификатор кодека : V_MPEG4/ISO/AVC
Продолжительность : 1 ч. 31 м.
Вид битрейта : Переменный
Битрейт : 3681 Кбит/сек
Максимальный битрейт : 4000 Кбит/сек
Ширина : 1280 пикселей
Высота : 536 пикселей
Соотношение сторон : 2,40:1
Режим частоты кадров : Постоянный
Частота кадров : 23,976 (24000/1001) кадра/сек
Стандарт вещания : Component
Цветовое пространство : YUV
Субдискретизация насыщенности : 4:2:0
Битовая глубина : 8 бит
Тип развёртки : Прогрессивная
Бит/(Пиксели*Кадры) : 0.219
Размер потока : 2,30 Гбайт (89%)
Default : Да
Forced : Нет
Цветовой диапазон : Limited
Основные цвета : BT.709
Характеристики трансфера : BT.709
Коэффициенты матрицы : BT.709

Аудио
Идентификатор : 2
Формат : AC-3
Формат/Информация : Audio Coding 3
Расширение режима : CM (complete main)
Параметр Endianness формата : Big
Идентификатор кодека : A_AC3
Продолжительность : 1 ч. 31 м.
Вид битрейта : Постоянный
Битрейт : 384 Кбит/сек
Каналы : 2 канала
Расположение каналов : Front: L R
Частота : 48,0 КГц
Частота кадров : 31,250 кадров/сек (1536 spf)
Метод сжатия : С потерями
Размер потока : 251 Мбайт (9%)
Default : Да
Forced : Нет

piratbit.cc



Скачать Дар через торрент https://b.radikal.ru/b07/1905/49/4c961cfa24d4.jpg Скачать фильм Дар через торрент бесплантно в хорошем качестве Описание: Толя Сидоров - простой рабочий предпенсионного возраста из российской глубинки - неожиданно открывает у себя талант художника и ... 10 10 3
Торрент: Зарегистрирован [2019-05-19 05:42] · скачан: 42 раз
Статус: T временная
Размер: 2.59 GB
Как cкачать? Как скачать Дар через торрент | qTorrent

% Раздел Тема Автор DL S | L
Ходячие мертвецы (The Walking Dead) [ 2.46 GB ] Ходячие Мертвецы / The Walking Dead / Сезон: 1 / Серии: 1-6 [2010 HDTVRip] lyokaa Скачать
1 | 0
Кино СССР [ 2.05 GB ] Служебный роман / Sluzhebnyy roman [1977 DVDRip] Shmel Скачать
3 | 0
Кино СССР [ 2.05 GB ] Они сражались за Родину [1975 военный DVDRip] ДениС22 Скачать
2 | 0
Сборники на DVD и Сиквелы [DVDrip, WEB-DLRip, HDrip, BDRip] [ 13.08 GB ] Пила 123456 / Saw 123456 [2004-2009 BDRip] SD Скачать
1 | 2
Наши фильмы, до 2010 [ 1.37 GB ] Обитаемый остров: Схватка [2009 DVDRip] DEVI Скачать
1 | 0
Космические симуляторы [ 8.13 GB ] X: Подарочное Издание [RePack RU Simulator] GnomikX Скачать
1 | 0
Историческая книга [ 7.3 GB ] Карамзин Николай Михайлович. - Н. М. Карамзин: "История Государства Российского" Anonymous Скачать
1 | 0


>> Регистрируемся здесь <<






Отзывы и комментарии о схеме читаем и пишем здесь: ---> Отзывы и комментарии о схеме

Новые благодарочки в телеграм довольных пользователей:
скриншот   скриншот   скриншот   скриншот   скриншот
    Дорогой пользователь! Огромная просьба, поблагодарите релизера, оцените раздачу и оставьте свои комментарий, если Вы скачали Дар через торрент бесплатно! Внесите свою лепту в развитие PiratBit!
    Комментировать посты могут только пользователи прошедшие не сложную регистрацию
    Показать сообщения:    

    Дар через торрент
    Скачать бесплатно Дар
    Дар скачать торрент
    Дар смотреть онлайн
    Cкачать фильм Дар бесплатно
    Дар скачать торрент в хорошем качестве
    Дар смотреть онлайн бесплатно в хорошем качестве


    Вы не можете начинать темы
    Вы не можете отвечать на сообщения
    Вы не можете редактировать свои сообщения
    Вы не можете удалять свои сообщения
    Вы не можете голосовать в опросах
    Вы не можете прикреплять файлы к сообщениям
    Вы можете скачивать файлы