iTunes

1+1

iTunes

мы

iTunes

1

iTunes

Чернобыль

iTunes

Ральф против интернета

Лицензия

ПШазам

Лицензия

Игра престолов

Лицензия

30
pack

ВАЖНО

!!Акция!!

Alien_RageХит недели

RePack

Resident Evil 21

ИГРА 18+

pack

RePack

Metro:Exodus

!!Акция!!

Alien_Rage

RePack

fifa19

RePack

Assassins Creed: Odyssey

RePack

NEED FOR SPEED™ PAYBACK

3 сезон

9 сезон

Бесстыжие 9 сезон

Все сериалы

все сериалы на PB.wtf

RePack

FAR CRY 5
Ребята, катастрофически не хватает 7730р. для оплаты серверов за АВГУСТ (всвязи с блокировками трафик упал в 3 раза), 1-2р., выручайте.
  

Дождь / The Rain / Сезон: 2 / Серии: 1-6 из 6 (Кеннет Кайнц, Наташа Артю) [2019, фантастика, драма, триллер, WEB-DL 720p] [MVO] (AlexFilm) piratbit.cc

Дождь через торрент piratbit.cc

Размер: 5.83 GB | Добавлен: 3 мес. 24 д. назад | Торрент скачан:26 раз
Скачать  

20-05-2019 17:58 Дождь Скачать торрент  

Дождь | The Rain
«Stay Dry. Stay Alive»

Производство: Дания, США
Год выпуска: 2019
Жанр: фантастика, триллер, драма
Продолжительность: ~ 00:52:00 серия
Перевод: Профессиональный (многоголосый закадровый) |AlexFilm|

Режиссер: Кеннет Кайнц, Наташа Артю

Актеры: Йоан Гриффит, Мирра Фолкс, Дэмиен Гарви, Реми Хий, Робин Малкольм, Элла Ньютон, Анна Лизе Филлипс, Патрис Кокс, Мартиниа О’Салливан, Пари Парандуш
Описание фильма:
Шесть лет назад смертоносный вирус стёр с лица Земли почти всё человечество. Брат и сестра скрываются в специальном бункере, пока обстоятельства не вынуждают их выйти на поверхность. Вскоре после этого они отправляются на поиски пропавшего без вести отца, который, уходя, приказал сестре беречь брата любой ценой и оставил загадочные предостережения.

rating скриншот  

Качество видео: WEB-DL 720p
Формат: MKV
Видео: AVC, 1280 x 720 (1.778), 25.000 fps, ~3160 kbps
Аудио Rus: AC-3, 48 kHz, 6 ch, 384 kbps |AlexFilm|
Аудио Dan: AC-3, 48 kHz, 6 ch, 384 kbps |Original|
Субтитры: Rus, Eng (SDH), Dan (Netflix)
Релиз:

Перевод: Александра Елизарова
Монтаж и сведение звука: Михаил Федосеев
Роли озвучивали:
    • Евгения Тихонова
    • Екатерина Муравицкая
    • Константин Федосеев
    • Кирилл Патрино
    • Дмитрий Лунёв
    • Михаил Федосеев

Общее
Уникальный идентификатор : 184012660420675899458731866343868992874 (0x8A6F8C9DF1FEF63272A4EA3751280D6A)
Полное имя : E:\_Сериалы\_Сериалы\AlexFilm\The Rain.Zone.s02.WEB-DL.720p.AlexFilm\The.Rain.s02e01.WEB-DL.720p.Rus.Dan.AlexFilm.mkv
Формат : Matroska
Версия формата : Version 4
Размер файла : 1,01 Гбайт
Продолжительность : 37 м. 38 с.
Режим общего битрейта : Переменный
Общий поток : 3837 Кбит/сек
Название фильма : The Rain 2x01 @ AlexFilm
Дата кодирования : UTC 2019-05-20 07:47:57
Программа кодирования : mkvmerge v34.0.0 ('Sight and Seen') 64-bit
Библиотека кодирования : libebml v1.3.7 + libmatroska v1.5.0

Видео
Идентификатор : 1
Формат : AVC
Формат/Информация : Advanced Video Codec
Профиль формата : Main@L3.1
Настройки формата : CABAC / 3 Ref Frames
Параметр CABAC формата : Да
Параметр RefFrames формата : 3 кадра
Идентификатор кодека : V_MPEG4/ISO/AVC
Продолжительность : 37 м. 38 с.
Вид битрейта : Переменный
Битрейт : 3160 Кбит/сек
Максимальный битрейт : 4740 Кбит/сек
Ширина : 1280 пикселей
Высота : 720 пикселей
Соотношение сторон : 16:9
Режим частоты кадров : Постоянный
Частота кадров : 25,000 кадров/сек
Цветовое пространство : YUV
Субдискретизация насыщенности : 4:2:0
Битовая глубина : 8 бит
Тип развёртки : Прогрессивная
Бит/(Пиксели*Кадры) : 0.137
Размер потока : 826 Мбайт (80%)
Библиотека кодирования : x264 core 148 r2715 7e75228
Настройки программы : cabac=1 / ref=3 / deblock=1:0:0 / analyse=0x1:0x111 / me=umh / subme=10 / psy=1 / psy_rd=1.00:0.00 / mixed_ref=1 / me_range=24 / chroma_me=1 / trellis=2 / 8x8dct=0 / cqm=0 / deadzone=21,11 / fast_pskip=1 / chroma_qp_offset=-2 / threads=8 / lookahead_threads=1 / sliced_threads=0 / nr=0 / decimate=1 / interlaced=0 / bluray_compat=0 / stitchable=1 / constrained_intra=0 / bframes=2 / b_pyramid=0 / b_adapt=2 / b_bias=0 / direct=3 / weightb=1 / open_gop=0 / weightp=2 / keyint=50 / keyint_min=26 / scenecut=0 / intra_refresh=0 / rc_lookahead=50 / rc=2pass / mbtree=1 / bitrate=3160 / ratetol=1.0 / qcomp=0.50 / qpmin=6 / qpmax=51 / qpstep=4 / cplxblur=20.0 / qblur=0.5 / vbv_maxrate=4740 / vbv_bufsize=6320 / nal_hrd=vbr / filler=0 / ip_ratio=1.40 / aq=1:1.00
Default : Да
Forced : Нет

Аудио #1
Идентификатор : 2
Формат : AC-3
Формат/Информация : Audio Coding 3
Коммерческое название : Dolby Digital
Идентификатор кодека : A_AC3
Продолжительность : 37 м. 38 с.
Вид битрейта : Постоянный
Битрейт : 384 Кбит/сек
Каналы : 6 каналов
Channel layout : L R C LFE Ls Rs
Частота : 48,0 КГц
Частота кадров : 31,250 кадров/сек (1536 SPF)
Битовая глубина : 16 бит
Метод сжатия : С потерями
Размер потока : 103 Мбайт (10%)
Заголовок : DD5.1 AlexFilm
Язык : Russian
ServiceKind/String : Complete Main
Default : Да
Forced : Нет

Аудио #2
Идентификатор : 3
Формат : AC-3
Формат/Информация : Audio Coding 3
Коммерческое название : Dolby Digital
Идентификатор кодека : A_AC3
Продолжительность : 37 м. 38 с.
Вид битрейта : Постоянный
Битрейт : 384 Кбит/сек
Каналы : 6 каналов
Channel layout : L R C LFE Ls Rs
Частота : 48,0 КГц
Частота кадров : 31,250 кадров/сек (1536 SPF)
Битовая глубина : 16 бит
Метод сжатия : С потерями
Размер потока : 103 Мбайт (10%)
Заголовок : DD5.1 Original
Язык : Danish
ServiceKind/String : Complete Main
Default : Нет
Forced : Нет

Текст #1
Идентификатор : 4
Формат : UTF-8
Идентификатор кодека : S_TEXT/UTF8
Идентификатор кодека/Информация : UTF-8 Plain Text
Продолжительность : 35 м. 9 с.
Битрейт : 89 бит/сек
ElementCount : 429
Размер потока : 23,0 Кбайт (0%)
Язык : Russian
Default : Нет
Forced : Нет

Текст #2
Идентификатор : 5
Формат : UTF-8
Идентификатор кодека : S_TEXT/UTF8
Идентификатор кодека/Информация : UTF-8 Plain Text
Продолжительность : 6 м. 40 с.
Битрейт : 17 бит/сек
ElementCount : 28
Размер потока : 896 байт (0%)
Заголовок : Forced
Язык : Danish
Default : Да
Forced : Да

Текст #3
Идентификатор : 6
Формат : UTF-8
Идентификатор кодека : S_TEXT/UTF8
Идентификатор кодека/Информация : UTF-8 Plain Text
Продолжительность : 36 м. 7 с.
Битрейт : 62 бит/сек
ElementCount : 442
Размер потока : 16,6 Кбайт (0%)
Заголовок : SDH
Язык : Danish
Default : Нет
Forced : Нет

Текст #4
Идентификатор : 7
Формат : UTF-8
Идентификатор кодека : S_TEXT/UTF8
Идентификатор кодека/Информация : UTF-8 Plain Text
Продолжительность : 35 м. 47 с.
Битрейт : 67 бит/сек
ElementCount : 511
Размер потока : 17,6 Кбайт (0%)
Язык : English
Default : Нет
Forced : Нет

Текст #5
Идентификатор : 8
Формат : UTF-8
Идентификатор кодека : S_TEXT/UTF8
Идентификатор кодека/Информация : UTF-8 Plain Text
Продолжительность : 35 м. 2 с.
Битрейт : 55 бит/сек
ElementCount : 414
Размер потока : 14,1 Кбайт (0%)
Заголовок : SDH
Язык : English
Default : Нет
Forced : Нет

скриншот  скриншот  скриншот  

Раздача ведётся путём добавления новых серий; при каждом добавлении создаётся новый торрент.
Чтобы начать докачку новой серии, пользователям необходимо сделать следующее:
1. остановить скачивание,
2. удалить старый торрент у себя из клиента (старые серии удалять не надо),
3. скачать новый торрент и запустить его у себя в клиенте вместо старого, при этом указать клиенту путь в старую папку, куда и должно происходить скачивание новых серий.

Ваш клиент при этом должен произвести хеширование (проверку) старой папки (если не производит сам - помогите ему сделать это), и будет докачивать только те серии которых у вас ещё нет. Старые серии при этом не удаляются, а продолжают раздаваться!

Eсли вы уже удалили старые серии, то предотвратить повторную закачку старых серий можно, отжав галочку в соответствующих местах при запуске нового торрента. По возможности, желательно не удалять старые серии как можно дольше, чтобы релизёр не столько продолжал раздавать старые серии, а смог сконцентрироваться на новых.

Совет для тех, кто не хочет ждать перехеширования:
Создайте ещё одну папку рядом с папкой сериала (рядом, а не в ней!!!). Каждую новую серию после удачной загрузки копируйте в новую папку так чтобы ваша основная папка всегда была пуста. Когда ваш новый торрент предложит вам закачать все файлы, выберете только последнюю. Для сидирования же укажите адрес новой папки.

Как закачать отдельный файл из торрента или докачать ранее пропущенные файлы торрента!

1. Открыть торрент
2. Снять галки с тех файлов торрента, которые мы не хотим закачивать. Оставляем только на нужных нам файлах (файле).
3. Нажать О.К.

В клиенте utorrent

Инструкция

1) Открыть торрент


2) Снять галки с тех файлов торрента, которые мы не хотим закачивать:

* либо вручную, снимая с каждого файла галку( скрин №1)
* либо, нажав кнопку "Снять метки (Select None)", сняв сразу со всех файлов(скрин №2)
№1

№2

Оставляем только на нужных нам файлах (файле).

3)Нажать О.К

Приятного просмотра!!!piratbit.cc



Скачать Дождь через торрент https://i1.imageban.ru/out/2019/05/19/3291e42b1ee4ac2895e7f133f060fa0a.png Скачать фильм Дождь через торрент бесплантно в хорошем качестве Описание фильма:Шесть лет назад смертоносный вирус стёр с лица Земли почти всё человечество. Брат и сестра скрываются в специальном ... 8.5 10 6
Торрент: Зарегистрирован [2019-05-25 19:21] · скачан: 26 раз
Статус: √ проверено
Размер: 5.83 GB
Как cкачать? Как скачать Дождь через торрент | qTorrent

% Раздел Тема Автор DL S | L
Зарубежные сериалы [ 6.3 GB ] Дождь / The Rain / Сезон: 2 / Серии: 1-6 из 6 [2019 WEBRip 720p] MVO [TVShows] bober100 Скачать
1 | 0
Зарубежные сериалы [ 10.08 GB ] Дождь / The Rain / Сезон: 2 / Серии: 1-6 из 6 [2019 WEBRip 1080p] MVO [TVShows] bober100 Скачать
2 | 0
Зарубежные сериалы [ 10.08 GB ] Дождь / The Rain / Сезон: 2 / Серии: 1-6 из 6 [2019 WEB-DL 1080p] [MVO] killermax2013 Скачать
1 | 1
Зарубежные сериалы [ 5.06 GB ] Дождь / The Rain / Сезон: 2 / Серии: 1-6 из 6 [2019 WEB-DLRip] [MVO] killermax2013 Скачать
2 | 1


>> Регистрируемся здесь <<






Отзывы и комментарии о схеме читаем и пишем здесь: ---> Отзывы и комментарии о схеме

Новые благодарочки в телеграм довольных пользователей:
скриншот   скриншот   скриншот   скриншот   скриншот
    Дорогой пользователь! Огромная просьба, поблагодарите релизера, оцените раздачу и оставьте свои комментарий, если Вы скачали Дождь через торрент бесплатно! Внесите свою лепту в развитие PiratBit!
    Комментировать посты могут только пользователи прошедшие не сложную регистрацию
    Показать сообщения:    

    Дождь через торрент
    Скачать бесплатно Дождь
    Дождь скачать торрент
    Дождь смотреть онлайн
    Cкачать фильм Дождь бесплатно
    Дождь скачать торрент в хорошем качестве
    Дождь смотреть онлайн бесплатно в хорошем качестве


    Вы не можете начинать темы
    Вы не можете отвечать на сообщения
    Вы не можете редактировать свои сообщения
    Вы не можете удалять свои сообщения
    Вы не можете голосовать в опросах
    Вы не можете прикреплять файлы к сообщениям
    Вы можете скачивать файлы