iTunes

1+1

iTunes

мы

iTunes

1

iTunes

Чернобыль

iTunes

Ральф против интернета

Лицензия

ПШазам

Лицензия

Игра престолов

Лицензия

30
pack

ВАЖНО

!!Акция!!

Alien_RageХит недели

RePack

Resident Evil 21

ИГРА 18+

pack

RePack

Metro:Exodus

!!Акция!!

Alien_Rage

RePack

fifa19

RePack

Assassins Creed: Odyssey

RePack

NEED FOR SPEED™ PAYBACK

3 сезон

9 сезон

Бесстыжие 9 сезон

Все сериалы

все сериалы на PB.wtf

RePack

FAR CRY 5
Ребята, катастрофически не хватает 7730р. для оплаты серверов за АВГУСТ (всвязи с блокировками трафик упал в 3 раза), 1-2р., выручайте.
  

Карательница / A Vigilante (Сара Даггар-Никсон) [2018, Триллер, драма, криминал, детектив, WEB-DL 1080p] MVO [HDRezka Studio] piratbit.cc

Карательница через торрент piratbit.cc

Раздают: 1 [ 0 KB/s ]
Размер: 3.71 GB | Добавлен: 3 мес. 25 д. назад | Торрент скачан:108 раз
Скачать  

24-05-2019 18:33 Карательница Скачать торрент  

Карательница / A Vigilante
Год выпуска: 2018
Страна: США
Жанр: Триллер, драма, криминал, детектив
Продолжительность: 01:31:20
Перевод: Профессиональный многоголосый | HDRezka Studio
Субтитры: Английские

Режиссер: Сара Даггар-Никсон

rating

В ролях:

Оливия Уайлд, Морган Спектор, Бетси Айдем, Кайл Кэтлетт, Тони Патано, С.Дж. Уилсон, Джуди Марте, Кристал Лэйк Эванс, Джим Форд, Дэвид Шамбрис

Описание:

В мире слишком много жестокости, и есть такие семьи, где домашнее насилие считается нормой. Американский криминальный триллер «Карательница» повествует именно о таких историях. Сади помогает жертвам домашнего насилия сбегать от мучителей — она берёт правосудие в свои руки и начинает методично разбираться с негодяями. Но работа карательницы не так проста, а старые шрамы и раны того и гляди дадут о себе знать.

Качество: WEB-DL 1080p
Формат: MKV

Видео: MPEG-4 AVC, 5232 Кбит/с, 1908х1028
Аудио#1: Russian: AC3, 2 ch, 192 Кбит/с - HDRezka Studio
Аудио#2: English: AC3, 6 ch, 384 Кбит/с - Original
скриншот  скриншот  скриншот  скриншот  

General
Unique ID : 317946182233807993968405493625300332444 (0xEF3235120E71DC871692BCF672762F9C)
Complete name : G:A.Vigilante.2018.WEB-DL.1080p.mkv
Format : Matroska
Format version : Version 4 / Version 2
File size : 3.71 GiB
Duration : 1 h 31 min
Overall bit rate : 5 810 kb/s
Encoded date : UTC 2019-04-12 12:19:12
Writing application : mkvmerge v20.0.0 ('I Am The Sun') 64-bit
Writing library : libebml v1.3.5 + libmatroska v1.4.8

Video
ID : 1
Format : AVC
Format/Info : Advanced Video Codec
Format profile : High@L4
Format settings : CABAC / 4 Ref Frames
Format settings, CABAC : Yes
Format settings, RefFrames : 4 frames
Codec ID : V_MPEG4/ISO/AVC
Duration : 1 h 31 min
Bit rate : 5 232 kb/s
Width : 1 908 pixels
Height : 1 028 pixels
Display aspect ratio : 1.85:1
Frame rate mode : Constant
Frame rate : 23.976 (24000/1001) FPS
Color space : YUV
Chroma subsampling : 4:2:0
Bit depth : 8 bits
Scan type : Progressive
Bits/(Pixel*Frame) : 0.111
Stream size : 3.34 GiB (90%)
Language : English
Default : Yes
Forced : No
Color range : Limited
Color primaries : BT.709
Transfer characteristics : BT.709
Matrix coefficients : BT.709

Audio #1
ID : 2
Format : AC-3
Format/Info : Audio Coding 3
Codec ID : A_AC3
Duration : 1 h 31 min
Bit rate mode : Constant
Bit rate : 192 kb/s
Channel(s) : 2 channels
Channel positions : Front: L R
Sampling rate : 48.0 kHz
Frame rate : 31.250 FPS (1536 SPF)
Bit depth : 16 bits
Compression mode : Lossy
Stream size : 125 MiB (3%)
Title : MVO HDRezka
Language : Russian
Service kind : Complete Main
Default : Yes
Forced : No

Audio #2
ID : 3
Format : AC-3
Format/Info : Audio Coding 3
Codec ID : A_AC3
Duration : 1 h 31 min
Bit rate mode : Constant
Bit rate : 384 kb/s
Channel(s) : 6 channels
Channel positions : Front: L C R, Side: L R, LFE
Sampling rate : 48.0 kHz
Frame rate : 31.250 FPS (1536 SPF)
Bit depth : 16 bits
Compression mode : Lossy
Stream size : 251 MiB (7%)
Language : English
Service kind : Complete Main
Default : No
Forced : No

Text
ID : 4
Format : UTF-8
Codec ID : S_TEXT/UTF8
Codec ID/Info : UTF-8 Plain Text
Duration : 1 h 24 min
Bit rate : 21 b/s
Count of elements : 443
Stream size : 13.5 KiB (0%)
Language : English
Default : No
Forced : No

Menu
00:00:00.000 : en:1
00:03:17.000 : en:2
00:12:54.000 : en:3
00:24:31.000 : en:4
00:34:20.000 : en:5
00:48:45.000 : en:6
00:56:06.000 : en:7
01:08:43.000 : en:8
01:16:11.000 : en:9
01:26:10.000 : en:10

piratbit.cc



Скачать Карательница через торрент https://c.radikal.ru/c34/1903/8e/d05b2818f724.png Скачать фильм Карательница через торрент бесплантно в хорошем качестве Описание: В мире слишком много жестокости, и есть такие семьи, где домашнее насилие считается нормой. Американский криминальный триллер ... 10 10 6
Торрент: Зарегистрирован [2019-05-24 18:33] · скачан: 108 раз
Статус: T временная
Размер: 3.71 GB
Как cкачать? Как скачать Карательница через торрент | qTorrent

% Раздел Тема Автор DL S | L
Фильмы 2018 [DVDrip, WEB-DLRip, HDrip] (DUB, MVO) [ 2.07 GB ] Карательница / A Vigilante [2018 BDRip-AVC] MVO [AVO] - ExKinoRay Enigma2010 Скачать
10 | 1
T Фильмы 2018 [DVDrip, WEB-DLRip, HDrip] (DUB, MVO) [ 1.46 GB ] Карательница / A Vigilante [2018 WEB-DLRip-AVC] MVO [HDRezka Studio] bober100 Скачать
5 | 0
Фильмы с авторской озвучкой [ 3.83 GB ] Карательница / A Vigilante [2018 WEB-DL 1080p] AVO [А. Важенин ] bober100 Скачать
1 | 0
Фильмы с авторской озвучкой [ 1.46 GB ] Карательница / A Vigilante [2018 WEB-DLRip] AVO [А. Важенин ] bober100 Скачать
1 | 0
Фильмы с авторской озвучкой [ 1.62 GB ] Карательница / A Vigilante [2018 WEB-DLRip-AVC] [AVO] - ExKinoRay Enigma2010 Скачать
28 | 0


>> Регистрируемся здесь <<






Отзывы и комментарии о схеме читаем и пишем здесь: ---> Отзывы и комментарии о схеме

Новые благодарочки в телеграм довольных пользователей:
скриншот   скриншот   скриншот   скриншот   скриншот
    Дорогой пользователь! Огромная просьба, поблагодарите релизера, оцените раздачу и оставьте свои комментарий, если Вы скачали Карательница через торрент бесплатно! Внесите свою лепту в развитие PiratBit!
    Комментировать посты могут только пользователи прошедшие не сложную регистрацию
    Показать сообщения:    

    Карательница через торрент
    Скачать бесплатно Карательница
    Карательница скачать торрент
    Карательница смотреть онлайн
    Cкачать фильм Карательница бесплатно
    Карательница скачать торрент в хорошем качестве
    Карательница смотреть онлайн бесплатно в хорошем качестве


    Вы не можете начинать темы
    Вы не можете отвечать на сообщения
    Вы не можете редактировать свои сообщения
    Вы не можете удалять свои сообщения
    Вы не можете голосовать в опросах
    Вы не можете прикреплять файлы к сообщениям
    Вы можете скачивать файлы