iTunes

1+1

iTunes

мы

iTunes

1

iTunes

Чернобыль

iTunes

Ральф против интернета

Лицензия

ПШазам

Лицензия

Игра престолов

Лицензия

30
pack

ВАЖНО

!!Акция!!

Alien_RageХит недели

RePack

Resident Evil 21

ИГРА 18+

pack

RePack

Metro:Exodus

!!Акция!!

Alien_Rage

RePack

fifa19

RePack

Assassins Creed: Odyssey

RePack

NEED FOR SPEED™ PAYBACK

3 сезон

9 сезон

Бесстыжие 9 сезон

Все сериалы

все сериалы на PB.wtf

RePack

FAR CRY 5
Ребята, катастрофически не хватает 7730р. для оплаты серверов за АВГУСТ (всвязи с блокировками трафик упал в 3 раза), 1-2р., выручайте.
  

Полароид / Polaroid (Ларс Клевберг) [2019, Ужасы, триллер, драма, BDRip-AVC] MVO [HDRezka Studio] piratbit.cc

Полароид через торрент piratbit.cc

Раздают: 2 [ 84 KB/s ]
Размер: 1.59 GB | Добавлен: 3 мес. 25 д. назад | Торрент скачан:390 раз
Скачать  

24-05-2019 22:20 Полароид Скачать торрент  

Полароид / Polaroid
«Beware This Camera...Once You Take It, It Takes You»

Год выпуска: 2019
Страна: Канада, Норвегия, США
Жанр: Ужасы, триллер, драма
Продолжительность: 01:28:00
Перевод: Профессиональный (многоголосый) | HDRezka Studio
Субтитры: отсутствуют

Режиссер: Ларс Клевберг

rating

В ролях:

Кэтрин Прескотт, Тайлер Янг, Саманта Логан, Кинэн Трэйси, Присцилла Квинтана, Хавьер Ботет, Митч Пиледжи, Дави Сантос, Кэти Стивенс, Грэйс Забриски, Мэделин Петш, Эрика Курата-Превост, Шона Макдональд, Риз Беван-Джон

Описание:

В руки к нелюдимой старшекласснице Бёрд, работающей в антикварном магазине, попадает винтажный фотоаппарат Polaroid. Девушка тут же делает снимок коллеги, а позже подруга вытаскивает её на вечеринку, где все тоже очень любят фотографироваться. В этот же вечер Бёрд узнаёт, что парень из магазина мёртв, а когда погибает и хозяйка вечеринки, Бёрд начинает догадываться, кто умрёт следующим. Дьявольское устройство убивает любого, кто окажется на фотографии, сделанной с его помощью, и теперь группа подростков должна разрешить загадку проклятия, пока фотоаппарат не прикончил их всех.

Качество: BDRip-AVC
Формат: MKV

Видео: 1024x426 (2.40:1), 24,000 fps, x264 ~1 954 kbps avg, 0.187 bit/pixel
Аудио#1: 48 kHz, AC3 Dolby Digital, 2 (L,R), ~192.00 kbps avg | RUS (HDRezka Studio)
Аудио#2: 48 kHz, AC3 Dolby Digital, 3/2 (L,C,R,l,r) + LFE ch, ~448.00 kbps avg | ENG
скриншот  скриншот  скриншот  скриншот  скриншот  

Общее
Уникальный идентификатор: 306622731388415194233622215284727244107 (0xE6AD63D71C47BF0C1F51C7CFAA40654B)
Полное имя: F:\OlLanDGroup\Polaroid.2019.BDRip(AVC).OllanDGroup.mkv
Формат: Matroska
Версия формата: Version 4 / Version 2
Размер файла: 1,59 Гбайт
Продолжительность: 1 ч. 27 м.
Общий поток: 2593 Кбит/сек
Название фильма: Polaroid 2019 #TorpedoUK#
Дата кодирования: UTC 2019-05-22 15:33:20
Программа кодирования: mkvmerge v29.0.0 ('Like It Or Not') 64-bit
Библиотека кодирования: libebml v1.3.6 + libmatroska v1.4.9

Видео
Идентификатор: 1
Формат: AVC
Формат/Информация: Advanced Video Codec
Профиль формата: High@L4.1
Параметр CABAC формата: Да
Параметр ReFrames формата: 10 кадров
Идентификатор кодека: V_MPEG4/ISO/AVC
Продолжительность: 1 ч. 27 м.
Битрейт: 1954 Кбит/сек
Ширина: 1024 пикселя
Высота: 426 пикселей
Соотношение сторон: 2,40:1
Режим частоты кадров: Постоянный
Частота кадров: 24,000 кадра/сек
Цветовое пространство: YUV
Субдискретизация насыщенности: 4:2:0
Битовая глубина: 8 бит
Тип развёртки: Прогрессивная
Бит/(Пиксели*Кадры): 0.187
Размер потока: 1,20 Гбайт (75%)
Библиотека кодирования: x264 core 146 r2538 121396c
Настройки программы: cabac=1 / ref=10 / deblock=1:-2:-3 / analyse=0x3:0x113 / me=umh / subme=11 / psy=1 / psy_rd=0.95:0.07 / mixed_ref=1 / me_range=48 / chroma_me=1 / trellis=2 / 8x8dct=1 / cqm=0 / deadzone=21,11 / fast_pskip=1 / chroma_qp_offset=-3 / threads=6 / lookahead_threads=1 / sliced_threads=0 / nr=0 / decimate=1 / interlaced=0 / bluray_compat=0 / constrained_intra=0 / bframes=11 / b_pyramid=2 / b_adapt=2 / b_bias=0 / direct=3 / weightb=1 / open_gop=0 / weightp=2 / keyint=240 / keyint_min=24 / scenecut=40 / intra_refresh=0 / rc_lookahead=40 / rc=2pass / mbtree=0 / bitrate=1954 / ratetol=1.0 / qcomp=0.60 / qpmin=0 / qpmax=69 / qpstep=4 / cplxblur=20.0 / qblur=0.5 / vbv_maxrate=50000 / vbv_bufsize=62500 / nal_hrd=none / filler=0 / ip_ratio=1.40 / pb_ratio=1.30 / aq=1:1.00
Язык: English
Default: Да
Forced: Нет

Аудио #1
Идентификатор: 2
Формат: AC-3
Формат/Информация: Audio Coding 3
Расширение режима: CM (complete main)
Параметр Endianness формата: Big
Идентификатор кодека: A_AC3
Продолжительность: 1 ч. 27 м.
Вид битрейта: Постоянный
Битрейт: 192 Кбит/сек
Каналы: 2 канала
Расположение каналов: Front: L R
Частота: 48,0 КГц
Частота кадров: 31,250 кадров/сек (1536 spf)
Битовая глубина: 16 бит
Метод сжатия: С потерями
Размер потока: 121 Мбайт (7%)
Заголовок: MVO [HDRezka Studio]
Язык: Russian
Default: Да
Forced: Нет

Аудио #2
Идентификатор: 3
Формат: AC-3
Формат/Информация: Audio Coding 3
Расширение режима: CM (complete main)
Параметр Endianness формата: Big
Идентификатор кодека: A_AC3
Продолжительность: 1 ч. 27 м.
Вид битрейта: Постоянный
Битрейт: 448 Кбит/сек
Каналы: 6 каналов
Расположение каналов: Front: L C R, Side: L R, LFE
Частота: 48,0 КГц
Частота кадров: 31,250 кадров/сек (1536 spf)
Битовая глубина: 16 бит
Метод сжатия: С потерями
Размер потока: 282 Мбайт (17%)
Заголовок: [Original]
Язык: English
Default: Нет
Forced: Нет

piratbit.cc



Скачать Полароид через торрент https://i109.fastpic.ru/big/2019/0522/a7/1f651996df8a516206700a8c8ba4aea7.jpg Скачать фильм Полароид через торрент бесплантно в хорошем качестве Описание: В руки к нелюдимой старшекласснице Бёрд, работающей в антикварном магазине, попадает винтажный фотоаппарат Polaroid. Девушка тут ... 9.8 10 12
Торрент: Зарегистрирован [2019-05-24 22:20] · скачан: 390 раз
Статус: T временная
Размер: 1.59 GB
Как cкачать? Как скачать Полароид через торрент | qTorrent

% Раздел Тема Автор DL S | L
T Фильмы [HD 720p, 1080p] (Хороший звук DUB, MVO) [ 3.82 GB ] Полароид / Polaroid [2019 BDRip 720p] MVO [HDrezka Studio] bober100 Скачать
1 | 0
T Фильмы [HD 720p, 1080p] (Хороший звук DUB, MVO) [ 6.67 GB ] Полароид / Polaroid [2019 BDRip 1080p] MVO [HDrezka Studio] bober100 Скачать
3 | 0


>> Регистрируемся здесь <<






Отзывы и комментарии о схеме читаем и пишем здесь: ---> Отзывы и комментарии о схеме

Новые благодарочки в телеграм довольных пользователей:
скриншот   скриншот   скриншот   скриншот   скриншот

25-05-2019 18:43 Полароид Скачать торрент  

Есть такой русский фильм, в прошлом году вроде выходил или позапрошлом про фотоаппаратpiratbit.cc



25-05-2019 19:53 Полароид Скачать торрент  

Risk писал(а):

Есть такой русский фильм, в прошлом году вроде выходил или позапрошлом про фотоаппарат

Да есть Фото на память называется, который мне вообще не понравился а этот вполне неплох на один раз.piratbit.cc



26-05-2019 03:22 Полароид Скачать торрент  

Посмотреть только чтобы узнать, где они кассеты для поляроида достают.piratbit.cc



26-05-2019 19:32 Полароид Скачать торрент  

ключевая фраза "группа подростков"
всё ясно...piratbit.cc



    Дорогой пользователь! Огромная просьба, поблагодарите релизера, оцените раздачу и оставьте свои комментарий, если Вы скачали Полароид через торрент бесплатно! Внесите свою лепту в развитие PiratBit!
    Комментировать посты могут только пользователи прошедшие не сложную регистрацию
    Показать сообщения:    

    Полароид через торрент
    Скачать бесплатно Полароид
    Полароид скачать торрент
    Полароид смотреть онлайн
    Cкачать фильм Полароид бесплатно
    Полароид скачать торрент в хорошем качестве
    Полароид смотреть онлайн бесплатно в хорошем качестве


    Вы не можете начинать темы
    Вы не можете отвечать на сообщения
    Вы не можете редактировать свои сообщения
    Вы не можете удалять свои сообщения
    Вы не можете голосовать в опросах
    Вы не можете прикреплять файлы к сообщениям
    Вы можете скачивать файлы