iTunes

1+1

iTunes

мы

iTunes

1

iTunes

Чернобыль

iTunes

Ральф против интернета

Лицензия

ПШазам

Лицензия

Игра престолов

Лицензия

30
pack

ВАЖНО

!!Акция!!

Alien_RageХит недели

RePack

Resident Evil 21

ИГРА 18+

pack

RePack

Metro:Exodus

!!Акция!!

Alien_Rage

RePack

fifa19

RePack

Assassins Creed: Odyssey

RePack

NEED FOR SPEED™ PAYBACK

3 сезон

9 сезон

Бесстыжие 9 сезон

Все сериалы

все сериалы на PB.wtf

RePack

FAR CRY 5
Ребята, катастрофически не хватает 7730р. для оплаты серверов за АВГУСТ (всвязи с блокировками трафик упал в 3 раза), 1-2р., выручайте.
  

Признание комиссара полиции прокурору республики / Confessione di un commissario di polizia (Дамиано Дамиани) [1971, драма, криминал, BDRip 1080p by msltel] DUB, MVO piratbit.cc

Признание комиссара полиции прокурору республики через торрент piratbit.cc

Размер: 9.04 GB | Добавлен: 3 мес. 23 д. назад | Торрент скачан:7 раз
Скачать  

25-05-2019 04:56 Признание комиссара полиции прокурору республики Скачать торрент  

Название: Признание комиссара полиции прокурору республики
Оригинальное название: Confessione di un commissario di polizia al procuratore della repubblica
Год выпуска: 1971
Страна: Италия
Жанр: драма, криминал
Продолжительность: 01:45:58
Перевод: дублированный, профессиональный многоголосый

Режиссер: Дамиано Дамиани
В ролях: Франко Неро, Мартин Болсам, Марилу Толо, Клаудио Гора, Лучано Катеначчи, Джанкарло Прете, Артуро Доминичи, Микеле Гаммино, Адольфо Ластретти, Нелло Паццафини, Калисто Калисти, Ванда Висмара

О фильме: Комиссар полиции Бонавиа из типичного итальянского городка много лет безуспешно охотившийся за местными мафиозным авторитетом, решается на крайний шаг: выпускает, на свой страх и риск, из тюрьмы бывшего сообщника босса мафии, с которым тот обошёлся бесчестно. Обуреваемый жаждой мести, бандит, выйдя из тюрьмы, ведёт себя именно так, как и хочет Бонавиа: первым делом находит на чёрном рынке автомат и идёт убивать своего обидчика. Но в жестокой перестрелке на вилле босса гибнут лишь трое его телохранителей, сам главарь, кем-то предупреждённый, ушёл, устроив киллеру ловушку. С этого момента затея Бонавиа ставит под удар его самого... (Википедия)



Качество: BDRip 1080p
Формат: MKV
Видео: MPEG-4 AVC, 11.4 Mбит/с, 1920x916
Аудио 1: русский, AC3, 192 kbps, 2 ch, 48 kHz [дублированный, с добавлением MVO и оригинала]
Аудио 2: русский, AC3, 192 kbps, 2 ch, 48 kHz [закадровый многоголосый, с добавлением DUB и оригинала]
Аудио 3: итальянский, DTS, 384 kbps, 1 ch, 48 kHz [оригинал]
Субтитры 1: русские (на непереведённые места)
Субтитры 2: английские
Главы/чаптеры
Общее
Уникальный идентификатор : 249703228328882266759473158615432132659 (0xBBDB17ABC7315DD0A0AA31E488FB7833)
Полное имя : D:\Video\Признание комиссара.1971.BDRip 1080p by msltel.mkv
Формат : Matroska
Версия формата : Version 4
Размер файла : 9,04 Гбайт
Продолжительность : 1 ч. 45 м.
Общий поток : 12,2 Мбит/сек
Название фильма : Rip by msltel
Дата кодирования : UTC 2019-05-24 02:19:42
Программа кодирования : mkvmerge v8.2.0 ('World of Adventure') 64bit
Библиотека кодирования : libebml v1.3.1 + libmatroska v1.4.2

Видео
Идентификатор : 1
Формат : AVC
Формат/Информация : Advanced Video Codec
Профиль формата : High@L4.1
Настройки формата : CABAC / 4 Ref Frames
Параметр CABAC формата : Да
Параметр RefFrames формата : 4 кадра
Идентификатор кодека : V_MPEG4/ISO/AVC
Продолжительность : 1 ч. 45 м.
Битрейт : 11,4 Мбит/сек
Ширина : 1920 пикселей
Высота : 816 пикселей
Соотношение сторон : 2,35:1
Режим частоты кадров : Постоянный
Частота кадров : 23,976 (24000/1001) кадра/сек
Цветовое пространство : YUV
Субдискретизация насыщенности : 4:2:0
Битовая глубина : 8 бит
Тип развёртки : Прогрессивная
Бит/(Пиксели*Кадры) : 0.305
Размер потока : 8,47 Гбайт (94%)
Библиотека кодирования : x264 core 157 r2935 545de2f
Настройки программы : cabac=1 / ref=4 / deblock=1:-2:-2 / analyse=0x3:0x113 / me=umh / subme=11 / psy=1 / psy_rd=1.00:0.15 / mixed_ref=1 / me_range=32 / chroma_me=1 / trellis=2 / 8x8dct=1 / cqm=0 / deadzone=21,11 / fast_pskip=0 / chroma_qp_offset=-3 / threads=6 / lookahead_threads=1 / sliced_threads=0 / nr=0 / decimate=1 / interlaced=0 / bluray_compat=0 / constrained_intra=0 / bframes=12 / b_pyramid=2 / b_adapt=2 / b_bias=0 / direct=1 / weightb=1 / open_gop=0 / weightp=2 / keyint=230 / keyint_min=23 / scenecut=40 / intra_refresh=0 / rc_lookahead=40 / rc=crf / mbtree=1 / crf=21.0 / qcomp=0.60 / qpmin=0 / qpmax=69 / qpstep=4 / vbv_maxrate=50000 / vbv_bufsize=62500 / crf_max=0.0 / nal_hrd=none / filler=0 / ip_ratio=1.40 / aq=1:1.00
Язык : Italian
Default : Да
Forced : Нет

Аудио #1
Идентификатор : 2
Формат : AC-3
Формат/Информация : Audio Coding 3
Коммерческое название : Dolby Digital
Идентификатор кодека : A_AC3
Продолжительность : 1 ч. 45 м.
Вид битрейта : Постоянный
Битрейт : 192 Кбит/сек
Каналы : 2 канала
ChannelLayout : L R
Частота : 48,0 КГц
Частота кадров : 31,250 кадров/сек (1536 SPF)
Битовая глубина : 16 бит
Метод сжатия : С потерями
Размер потока : 146 Мбайт (2%)
Заголовок : DUB с добавлением MVO и оригинала
Язык : Russian
ServiceKind/String : Complete Main
Default : Да
Forced : Нет

Аудио #2
Идентификатор : 3
Формат : AC-3
Формат/Информация : Audio Coding 3
Коммерческое название : Dolby Digital
Идентификатор кодека : A_AC3
Продолжительность : 1 ч. 45 м.
Вид битрейта : Постоянный
Битрейт : 192 Кбит/сек
Каналы : 2 канала
ChannelLayout : L R
Частота : 48,0 КГц
Частота кадров : 31,250 кадров/сек (1536 SPF)
Битовая глубина : 16 бит
Метод сжатия : С потерями
Размер потока : 146 Мбайт (2%)
Заголовок : MVO с добавлением DUB и оригинала
Язык : Russian
ServiceKind/String : Complete Main
Default : Нет
Forced : Нет

Аудио #3
Идентификатор : 4
Формат : DTS
Формат/Информация : Digital Theater Systems
Идентификатор кодека : A_DTS
Продолжительность : 1 ч. 45 м.
Вид битрейта : Постоянный
Битрейт : 384 Кбит/сек
Каналы : 1 канал
ChannelLayout : C
Частота : 48,0 КГц
Частота кадров : 93,750 кадра/сек (512 SPF)
Битовая глубина : 16 бит
Метод сжатия : С потерями
Размер потока : 291 Мбайт (3%)
Заголовок : original
Язык : Italian
Default : Нет
Forced : Нет

Текст #1
Идентификатор : 5
Формат : UTF-8
Идентификатор кодека : S_TEXT/UTF8
Идентификатор кодека/Информация : UTF-8 Plain Text
Продолжительность : 1 ч. 1 м.
Битрейт : 5 бит/сек
ElementCount : 27
Размер потока : 2,54 Кбайт (0%)
Заголовок : русские
Язык : Russian
Default : Нет
Forced : Нет

Текст #2
Идентификатор : 6
Формат : UTF-8
Идентификатор кодека : S_TEXT/UTF8
Идентификатор кодека/Информация : UTF-8 Plain Text
Продолжительность : 1 ч. 43 м.
Битрейт : 72 бит/сек
ElementCount : 1276
Размер потока : 55,3 Кбайт (0%)
Заголовок : английские
Язык : English
Default : Нет
Forced : Нет

Меню
00:00:00.000 : en:Chapter 1
00:10:44.727 : en:Chapter 2
00:15:41.649 : en:Chapter 3
00:26:33.633 : en:Chapter 4
00:31:52.619 : en:Chapter 5
00:41:00.499 : en:Chapter 6
00:51:23.497 : en:Chapter 7
00:55:41.546 : en:Chapter 8
01:04:42.879 : en:Chapter 9
01:12:18.083 : en:Chapter 10
01:21:03.358 : en:Chapter 11
01:29:56.724 : en:Chapter 12
01:39:13.989 : en:Chapter 13
01:45:58.018 : en:Chapter 14
piratbit.cc



Скачать Признание комиссара полиции прокурору республики через торрент https://c.radikal.ru/c26/1905/d8/4591d0c410a0.jpg Скачать фильм Признание комиссара полиции прокурору республики через торрент бесплантно в хорошем качестве О фильме: Комиссар полиции Бонавиа из ичного итальянского городка много лет безуспешно охотившийся за местными мафиозным авторитетом, ... 10 10 1
Info! Золотая раздача, скачанное не засчитывается.
Торрент: Зарегистрирован [2019-05-25 04:56] · скачан: 7 раз
Статус: √ проверено
Размер: 9.04 GB
Как cкачать? Как скачать Признание комиссара полиции прокурору республики через торрент | qTorrent

% Раздел Тема Автор DL S | L
Фильмы [HD 720p, 1080p] (Хороший звук DUB, MVO) [ 3.47 GB ] Признание комиссара полиции прокурору республики / Confessione di un commissario di polizia [1971 BDRip 720p by msltel] DUB MVO msltel Скачать
1 | 0


>> Регистрируемся здесь <<






Отзывы и комментарии о схеме читаем и пишем здесь: ---> Отзывы и комментарии о схеме

Новые благодарочки в телеграм довольных пользователей:
скриншот   скриншот   скриншот   скриншот   скриншот
    Дорогой пользователь! Огромная просьба, поблагодарите релизера, оцените раздачу и оставьте свои комментарий, если Вы скачали Признание комиссара полиции прокурору республики через торрент бесплатно! Внесите свою лепту в развитие PiratBit!
    Комментировать посты могут только пользователи прошедшие не сложную регистрацию
    Показать сообщения:    

    Признание комиссара полиции прокурору республики через торрент
    Скачать бесплатно Признание комиссара полиции прокурору республики
    Признание комиссара полиции прокурору республики скачать торрент
    Признание комиссара полиции прокурору республики смотреть онлайн
    Cкачать фильм Признание комиссара полиции прокурору республики бесплатно
    Признание комиссара полиции прокурору республики скачать торрент в хорошем качестве
    Признание комиссара полиции прокурору республики смотреть онлайн бесплатно в хорошем качестве


    Вы не можете начинать темы
    Вы не можете отвечать на сообщения
    Вы не можете редактировать свои сообщения
    Вы не можете удалять свои сообщения
    Вы не можете голосовать в опросах
    Вы не можете прикреплять файлы к сообщениям
    Вы можете скачивать файлы