Лицензия

30

iTunes

мы

iTunes

1

1 сезон

Чернобыль

1 сезон

Ральф против интернета

MVO

Покемон. Детектив Пикачу

8 сезон

Игра престолов

iTunes

1+1

ИГРА 18+

pack

ВАЖНО

!!Акция!!

Alien_RageХит недели

RePack

Resident Evil 21
pack

RePack

Metro:Exodus

!!Акция!!

Alien_Rage

RePack

fifa19

RePack

Assassins Creed: Odyssey

RePack

NEED FOR SPEED™ PAYBACK

3 сезон

9 сезон

Бесстыжие 9 сезон

Все сериалы

все сериалы на PB.wtf

RePack

FAR CRY 5
Ребята, катастрофически не хватает 2730р. для оплаты серверов за МАЙ (всвязи с блокировками трафик упал в 3 раза), 1-2р., выручайте.
  

Малыш Кид / The Kid (Винсент Д Онофрио) [2019, вестерн, приключения, BDRip 720p] DUB [Line] piratbit.cc

Малыш Кид через торрент piratbit.cc

Раздают: 1 [ 0 KB/s ]
Размер: 4.91 GB | Добавлен: 30 д. назад | Торрент скачан:50 раз
Скачать  

25-05-2019 13:50 Малыш Кид Скачать торрент  

Малыш Кид / The Kid Год выпуска: 2019
Страна: США
Жанр: вестерн, приключения
Продолжительность: 01:40:35
Перевод: Дублированный | Line
Субтитры: отсутствуют

Режиссер: Винсент Д Онофрио

rating

В ролях:

Джейк Шур, Крис Пратт, Итан Хоук, Винсент Д Онофрио, Дэйн ДеХаан, Адам Болдуин, Лейла Джордж, Тейт Флетчер, Кит Джардин, Ben Dickey

Описание:

История подростка Билли, который становится невольным свидетелем кровавой войны между легендарным бандитом Дикого Запада Билли Кидом по кличке Малыш Кид и жестоким шерифом Пэтом Гарреттом. Подросток прошел через длинную череду предательств родственников, гибель отца, исчезновение сестры и только встреча с кровавым тезкой Малышом Кидом позволит найти выход из этой ситуации. Но на их пути встаёт местный шериф...

Качество: BDRip 720p
Формат: MKV

Видео: h.264,6 541 Кбит/с, 1280x536
Аудио#1: Русский (AC3, 2 ch, 448 Кбит/с)
скриншот  скриншот  скриншот  

Общее
Уникальный идентификатор : 174250607803832170515950041492803329594 (0x8317724351AF477BB4C190EC90D89E3A)
Полное имя : D:\The.Kid.2019.D.BDRip.72Op.mkv
Формат : Matroska
Версия формата : Version 2
Размер файла : 4,91 Гбайт
Продолжительность : 1 ч. 40 м.
Режим общего битрейта : Переменный
Общий поток : 6990 Кбит/сек
Дата кодирования : UTC 2019-05-26 19:49:54
Программа кодирования : mkvmerge v8.3.0 ('Over the Horizon') 64bit
Библиотека кодирования : libebml v1.3.1 + libmatroska v1.4.2

Видео
Идентификатор : 1
Формат : AVC
Формат/Информация : Advanced Video Codec
Профиль формата : High@L4.1
Параметр CABAC формата : Да
Параметр RefFrames формата : 4 кадра
Идентификатор кодека : V_MPEG4/ISO/AVC
Продолжительность : 1 ч. 40 м.
Вид битрейта : Переменный
Битрейт : 6541 Кбит/сек
Максимальный битрейт : 7500 Кбит/сек
Ширина : 1280 пикселей
Высота : 536 пикселей
Соотношение сторон : 2,40:1
Режим частоты кадров : Постоянный
Частота кадров : 23,976 (24000/1001) кадра/сек
Стандарт вещания : Component
Цветовое пространство : YUV
Субдискретизация насыщенности : 4:2:0
Битовая глубина : 8 бит
Тип развёртки : Прогрессивная
Бит/(Пиксели*Кадры) : 0.389
Размер потока : 4,50 Гбайт (92%)
Default : Да
Forced : Нет
Цветовой диапазон : Limited
Основные цвета : BT.709
Характеристики трансфера : BT.709
Коэффициенты матрицы : BT.709

Аудио
Идентификатор : 2
Формат : AC-3
Формат/Информация : Audio Coding 3
Расширение режима : CM (complete main)
Параметр Endianness формата : Big
Идентификатор кодека : A_AC3
Продолжительность : 1 ч. 40 м.
Вид битрейта : Постоянный
Битрейт : 448 Кбит/сек
Каналы : 2 канала
Расположение каналов : Front: L R
Частота : 48,0 КГц
Частота кадров : 31,250 кадров/сек (1536 spf)
Метод сжатия : С потерями
Размер потока : 322 Мбайт (6%)
Default : Да
Forced : Нет

piratbit.cc



Скачать Малыш Кид через торрент https://d.radikal.ru/d13/1905/aa/f79f2fb42b5d.jpg Скачать фильм Малыш Кид через торрент бесплантно в хорошем качестве Описание: История подростка Билли, который становится невольным свидетелем кровавой войны между легендарным бандитом Дикого Запада Билли ... 10 10 3
Торрент: Зарегистрирован [2019-05-27 18:18] · скачан: 50 раз
Статус: # сомнительно
Размер: 4.91 GB
Как cкачать? Как скачать Малыш Кид через торрент | qTorrent

% Раздел Тема Автор DL S | L
Фильмы 2019 [DVDrip, WEB-DLRip, HDrip] (DUB, MVO) [ 1.42 GB ] Малыш Кид / The Kid [2019 BDRip] - Twi7ter Скачать
53 | 0
Фильмы 2019 [DVDrip, WEB-DLRip, HDrip] (DUB, MVO) [ 1.61 GB ] Малыш Кид / The Kid [2019 BDRip-AVC] Dub - ExKinoRay Enigma2010 Скачать
17 | 0
# Фильмы (Blu-ray, BD-Remux, HDDVD) [ 18.98 GB ] Малыш Кид / The Kid [2019 биография BD Remux ()] Бумер Скачать
1 | 0
Фильмы [HD 720p, 1080p] (Хороший звук DUB, MVO) [ 4.45 GB ] Малыш Кид / The Kid [2019 BDRip 720p] +MVO [HDRezka Studio] bober100 Скачать
6 | 0
Фильмы [HD 720p, 1080p] (Хороший звук DUB, MVO) [ 10.39 GB ] Малыш Кид / The Kid [2019 BDRip 1080p] +MVO [HDRezka Studio] bober100 Скачать
5 | 0
T Фильмы 2019 [DVDrip, WEB-DLRip, HDrip] (DUB, MVO) [ 1.79 GB ] Малыш Кид / The Kid [2019 BDRip-AVC] MVO [HDRezka Studio] - ExKinoRay Enigma2010 Скачать
32 | 0
Фильмы 2019 [DVDrip, WEB-DLRip, HDrip] (DUB, MVO) [ 2.13 GB ] Малыш Кид / The Kid [2019 BDRip-AVC] bober100 Скачать
7 | 0


>> Регистрируемся здесь <<






Отзывы и комментарии о схеме читаем и пишем здесь: ---> Отзывы и комментарии о схеме

Новые благодарочки в телеграм довольных пользователей:
скриншот   скриншот   скриншот   скриншот   скриншот

18-06-2019 16:20 Малыш Кид Скачать торрент  

    Дорогой пользователь! Огромная просьба, поблагодарите релизера, оцените раздачу и оставьте свои комментарий, если Вы скачали Малыш Кид через торрент бесплатно! Внесите свою лепту в развитие PiratBit!
    Комментировать посты могут только пользователи прошедшие не сложную регистрацию
    Показать сообщения:    

    Малыш Кид через торрент
    Скачать бесплатно Малыш Кид
    Малыш Кид скачать торрент
    Малыш Кид смотреть онлайн
    Cкачать фильм Малыш Кид бесплатно
    Малыш Кид скачать торрент в хорошем качестве
    Малыш Кид смотреть онлайн бесплатно в хорошем качестве


    Вы не можете начинать темы
    Вы не можете отвечать на сообщения
    Вы не можете редактировать свои сообщения
    Вы не можете удалять свои сообщения
    Вы не можете голосовать в опросах
    Вы не можете прикреплять файлы к сообщениям
    Вы можете скачивать файлы