Лицензия

30

iTunes

мы

iTunes

1

1 сезон

Чернобыль

1 сезон

Ральф против интернета

MVO

Покемон. Детектив Пикачу

8 сезон

Игра престолов

iTunes

1+1

ИГРА 18+

pack

ВАЖНО

!!Акция!!

Alien_RageХит недели

RePack

Resident Evil 21
pack

RePack

Metro:Exodus

!!Акция!!

Alien_Rage

RePack

fifa19

RePack

Assassins Creed: Odyssey

RePack

NEED FOR SPEED™ PAYBACK

3 сезон

9 сезон

Бесстыжие 9 сезон

Все сериалы

все сериалы на PB.wtf

RePack

FAR CRY 5
Ребята, катастрофически не хватает 2730р. для оплаты серверов за МАЙ (всвязи с блокировками трафик упал в 3 раза), 1-2р., выручайте.
  

Совершенство / The Perfection (Ричард Шепард) [2018, ужасы, триллер, драма, WEB-DL 1080p] MVO [@MUZOBOZ@] piratbit.cc

Совершенство через торрент piratbit.cc

Раздают: 2 [ 0 KB/s ]
Размер: 4.11 GB | Добавлен: 24 д. назад | Торрент скачан:52 раза
Скачать  

25-05-2019 14:16 Совершенство Скачать торрент  

Совершенство / The Perfection Год выпуска: 2018
Страна: США
Жанр: ужасы, триллер, драма
Продолжительность: 01:31:21
Перевод: Любительский (многоголосый) | @MUZOBOZ@
Субтитры: отсутствуют

Режиссер: Ричард Шепард

rating

В ролях:

Эллисон Уильямс, Элейна Хаффман, Стивен Уэбер, Логан Браунинг, Глайнис Дейвис, Эвелин Чю, Мила Томпсон, Винни Хун, Грэм Даффи, Кристина Ястржембска

Описание:

Здоровая конкуренция — это всегда хорошо, ведь она подталкивает нас сделать что-то лучше, совершенствоваться и добиваться успеха. Но если все заходить слишком далеко — опасности не миновать. Главные героини фильма «Совершенство» — одаренные музыканты Шарлота и Лиззи. Первая закончила музыкальную школу пару лет назад, а у второй еще все впереди, ведь сейчас она звезда того самого учебного заведения. Казалось бы, им нечего делить, но за место под солнцем готовы бороться обе. Отправившись в путешествие девушки сталкиваются с демонами внутри себя, которые завладели разумом и готовы свести с ума. Лиззи одержима чем-то неизвестным, ее мучают ужасные видения, которые так или иначе мешают ей играть. А чтобы избавиться от них, она готова отрубить себе руку. Девушка просит Шарлоту помочь ей, но сделает ли она доброе дело? Или же за всем этим стоят вовсе не сверхъестественные силы?

Качество: WEB-DL 1080p
Формат: MKV

Видео: h.264 6 051 Кбит/с, 1280x804
Аудио#1: Русский, (AC3, 2 ch, 384 Кбит/с)
скриншот  скриншот  скриншот  

Общее
Уникальный идентификатор : 224770403696385990051401874129935448817 (0xA91934820777E1119DF6882E3FE4BAF1)
Полное имя : D:\The.Perfection.2O18.P.WEB-DL.1O8Op.mkv
Формат : Matroska
Версия формата : Version 2
Размер файла : 4,11 Гбайт
Продолжительность : 1 ч. 31 м.
Режим общего битрейта : Переменный
Общий поток : 6437 Кбит/сек
Дата кодирования : UTC 2019-05-24 13:58:00
Программа кодирования : mkvmerge v8.3.0 ('Over the Horizon') 64bit
Библиотека кодирования : libebml v1.3.1 + libmatroska v1.4.2

Видео
Идентификатор : 1
Формат : AVC
Формат/Информация : Advanced Video Codec
Профиль формата : High@L4.1
Параметр CABAC формата : Да
Параметр RefFrames формата : 4 кадра
Идентификатор кодека : V_MPEG4/ISO/AVC
Продолжительность : 1 ч. 31 м.
Вид битрейта : Переменный
Битрейт : 6051 Кбит/сек
Максимальный битрейт : 6900 Кбит/сек
Ширина : 1920 пикселей
Высота : 804 пикселя
Соотношение сторон : 2,40:1
Режим частоты кадров : Постоянный
Частота кадров : 23,976 (24000/1001) кадра/сек
Стандарт вещания : Component
Цветовое пространство : YUV
Субдискретизация насыщенности : 4:2:0
Битовая глубина : 8 бит
Тип развёртки : Прогрессивная
Бит/(Пиксели*Кадры) : 0.160
Размер потока : 3,78 Гбайт (92%)
Default : Да
Forced : Нет
Цветовой диапазон : Limited
Основные цвета : BT.709
Характеристики трансфера : BT.709
Коэффициенты матрицы : BT.709

Аудио
Идентификатор : 2
Формат : AC-3
Формат/Информация : Audio Coding 3
Расширение режима : CM (complete main)
Параметр Endianness формата : Big
Идентификатор кодека : A_AC3
Продолжительность : 1 ч. 31 м.
Вид битрейта : Постоянный
Битрейт : 384 Кбит/сек
Каналы : 2 канала
Расположение каналов : Front: L R
Частота : 48,0 КГц
Частота кадров : 31,250 кадров/сек (1536 spf)
Метод сжатия : С потерями
Размер потока : 251 Мбайт (6%)
Default : Да
Forced : Нет

piratbit.cc



Скачать Совершенство через торрент https://b.radikal.ru/b35/1905/5c/7908bf687648.jpg Скачать фильм Совершенство через торрент бесплантно в хорошем качестве Описание: Здоровая конкуренция — это всегда хорошо, ведь она подталкивает нас сделать что-то лучше, совершенствоваться и добиваться успеха. ... 10 10 5
Торрент: Зарегистрирован [2019-05-25 14:16] · скачан: 52 раз
Статус: T временная
Размер: 4.11 GB
Как cкачать? Как скачать Совершенство через торрент | qTorrent

% Раздел Тема Автор DL S | L
T Фильмы (мультфильмы) cо спонсором показа (Новинки AVI/MKV) [ 3.65 GB ] Совершенство / The Perfection [2018 WEB-DL 720p] MVO [@MUZOBOZ@] bober100 Скачать
1 | 0
T Фильмы (мультфильмы) cо спонсором показа (Новинки AVI/MKV) [ 1.37 GB ] Совершенство / The Perfection [2018 WEB-DLRip] MVO [@MUZOBOZ@] bober100 Скачать
4 | 0
Порно фильмы с русским переводом [ 6.96 GB ] Перфекционист / The Perfectionist [2007 Feature. DVD9 одноголосый] Pir@tya2010 Скачать
1 | 0


>> Регистрируемся здесь <<






Отзывы и комментарии о схеме читаем и пишем здесь: ---> Отзывы и комментарии о схеме

Новые благодарочки в телеграм довольных пользователей:
скриншот   скриншот   скриншот   скриншот   скриншот
    Дорогой пользователь! Огромная просьба, поблагодарите релизера, оцените раздачу и оставьте свои комментарий, если Вы скачали Совершенство через торрент бесплатно! Внесите свою лепту в развитие PiratBit!
    Комментировать посты могут только пользователи прошедшие не сложную регистрацию
    Показать сообщения:    

    Совершенство через торрент
    Скачать бесплатно Совершенство
    Совершенство скачать торрент
    Совершенство смотреть онлайн
    Cкачать фильм Совершенство бесплатно
    Совершенство скачать торрент в хорошем качестве
    Совершенство смотреть онлайн бесплатно в хорошем качестве


    Вы не можете начинать темы
    Вы не можете отвечать на сообщения
    Вы не можете редактировать свои сообщения
    Вы не можете удалять свои сообщения
    Вы не можете голосовать в опросах
    Вы не можете прикреплять файлы к сообщениям
    Вы можете скачивать файлы