Лицензия

30

iTunes

мы

iTunes

1

1 сезон

Чернобыль

1 сезон

Ральф против интернета

MVO

Покемон. Детектив Пикачу

8 сезон

Игра престолов

iTunes

1+1

ИГРА 18+

pack

ВАЖНО

!!Акция!!

Alien_RageХит недели

RePack

Resident Evil 21
pack

RePack

Metro:Exodus

!!Акция!!

Alien_Rage

RePack

fifa19

RePack

Assassins Creed: Odyssey

RePack

NEED FOR SPEED™ PAYBACK

3 сезон

9 сезон

Бесстыжие 9 сезон

Все сериалы

все сериалы на PB.wtf

RePack

FAR CRY 5
Ребята, катастрофически не хватает 2730р. для оплаты серверов за МАЙ (всвязи с блокировками трафик упал в 3 раза), 1-2р., выручайте.
  

Её запах / Her Smell (Алекс Росс Перри) [2018, драма, музыка, WEB-DL 1080p] MVO [HDRezka Studio] piratbit.cc

Её запах через торрент piratbit.cc

Размер: 9.83 GB | Добавлен: 24 д. назад | Торрент скачан:12 раз
Скачать  

25-05-2019 20:09 Её запах Скачать торрент  

Её запах / Her Smell Год выпуска: 2018
Страна: США
Жанр: драма, музыка
Продолжительность: 02:15:34
Перевод: Профессиональный (многоголосый) | HDRezka Studio
Субтитры: Русские, английские

Режиссер: Алекс Росс Перри

rating

В ролях:

Элизабет Мосс, Кара Делевинь, Дэн Стивенс, Агнесс Дейн, Гэйл Ранкин, Эшли Бенсон, Дилан Гелула, Ика Дэрвилл, Линдси Бёрдж, Ханна Гросс

Описание:

Мятежная панк-звезда Бекки пытается вернуть себе вдохновение, которое когда-то привело её рок-группу к успеху. Для этого ей нужно разобраться в отношениях со своими коллегами и с бывшим мужем, а главное — поставить точку в многолетней борьбе с алкоголизмом...

Качество: WEB-DL 1080p
Формат: MKV

Видео: 1920x800 (2.40:1), 23.976 fps, MPEG-4 AVC ~10.0 Мbps avg
Аудио#1: 48.0 kHz, AC3 Dolby Digital, 2/0 (L,R) ch, ~192 kbps | RUS / HDRezka Studio
Аудио#2: 48.0 kHz, Enhanced Audio Coding 3, 3/2 (L,C,R,l,r) + LFE ch, ~640 kbps | ENG
скриншот  скриншот  скриншот  

General
Unique ID : 36240395261693694311924926641219917528 (0x1B43A5702FF3A1BA124757F9327156D8)
Complete name : Her.Smell.2018.WEB-DL.1080p.mkv
Format : Matroska
Format version : Version 4 / Version 2
File size : 9.83 GiB
Duration : 2 h 15 min
Overall bit rate : 10.4 Mb/s
Encoded date : UTC 2019-05-18 00:22:28
Writing application : mkvmerge v20.0.0 ('I Am The Sun') 64-bit
Writing library : libebml v1.3.5 + libmatroska v1.4.8

Video
ID : 1
Format : AVC
Format/Info : Advanced Video Codec
Format profile : High@L4
Format settings : CABAC / 4 Ref Frames
Format settings, CABAC : Yes
Format settings, RefFrames : 4 frames
Codec ID : V_MPEG4/ISO/AVC
Duration : 2 h 15 min
Bit rate mode : Constant
Bit rate : 10 000 kb/s
Width : 1 920 pixels
Height : 800 pixels
Display aspect ratio : 2.40:1
Frame rate mode : Constant
Frame rate : 23.976 (24000/1001) FPS
Color space : YUV
Chroma subsampling : 4:2:0
Bit depth : 8 bits
Scan type : Progressive
Bits/(Pixel*Frame) : 0.272
Stream size : 9.04 GiB (92%)
Language : English
Default : Yes
Forced : No
Color range : Limited
Color primaries : BT.709
Transfer characteristics : BT.709
Matrix coefficients : BT.709

Audio #1
ID : 2
Format : AC-3
Format/Info : Audio Coding 3
Codec ID : A_AC3
Duration : 2 h 15 min
Bit rate mode : Constant
Bit rate : 192 kb/s
Channel(s) : 2 channels
Channel positions : Front: L R
Sampling rate : 48.0 kHz
Frame rate : 31.250 FPS (1536 SPF)
Bit depth : 16 bits
Compression mode : Lossy
Stream size : 186 MiB (2%)
Title : MVO HDRezka Studio
Language : Russian
Service kind : Complete Main
Default : Yes
Forced : No

Audio #2
ID : 3
Format : E-AC-3
Format/Info : Enhanced Audio Coding 3
Codec ID : A_EAC3
Duration : 2 h 15 min
Bit rate mode : Constant
Bit rate : 640 kb/s
Channel(s) : 6 channels
Channel positions : Front: L C R, Side: L R, LFE
Sampling rate : 48.0 kHz
Frame rate : 187.500 FPS (256 SPF)
Compression mode : Lossy
Stream size : 621 MiB (6%)
Language : English
Service kind : Complete Main
Default : No
Forced : No

Text #1
ID : 4
Format : UTF-8
Codec ID : S_TEXT/UTF8
Codec ID/Info : UTF-8 Plain Text
Duration : 2 h 11 min
Bit rate : 91 b/s
Count of elements : 1650
Stream size : 87.5 KiB (0%)
Language : Russian
Default : No
Forced : No

Text #2
ID : 5
Format : UTF-8
Codec ID : S_TEXT/UTF8
Codec ID/Info : UTF-8 Plain Text
Duration : 2 h 11 min
Bit rate : 68 b/s
Count of elements : 1956
Stream size : 66.1 KiB (0%)
Language : English
Default : No
Forced : No

piratbit.cc



Скачать Её запах через торрент http://b.radikal.ru/b03/1905/cb/7ad68f90582c.jpg Скачать фильм Её запах через торрент бесплантно в хорошем качестве Описание: Мятежная панк-звезда Бекки пытается вернуть себе вдохновение, которое когда-то привело её рок-группу к успеху. Для этого ей нужно ... 10 10 3
Торрент: Зарегистрирован [2019-05-25 20:09] · скачан: 12 раз
Статус: T временная
Размер: 9.83 GB
Как cкачать? Как скачать Её запах через торрент | qTorrent

% Раздел Тема Автор DL S | L
T Фильмы 2018 [DVDrip, WEB-DLRip, HDrip] (DUB, MVO) [ 1.46 GB ] Её запах / Her Smell [2018 музыка WEB-DLRip] MVO [HDRezka studio] bober100 Скачать
4 | 0


>> Регистрируемся здесь <<






Отзывы и комментарии о схеме читаем и пишем здесь: ---> Отзывы и комментарии о схеме

Новые благодарочки в телеграм довольных пользователей:
скриншот   скриншот   скриншот   скриншот   скриншот
    Дорогой пользователь! Огромная просьба, поблагодарите релизера, оцените раздачу и оставьте свои комментарий, если Вы скачали Её запах через торрент бесплатно! Внесите свою лепту в развитие PiratBit!
    Комментировать посты могут только пользователи прошедшие не сложную регистрацию
    Показать сообщения:    

    Её запах через торрент
    Скачать бесплатно Её запах
    Её запах скачать торрент
    Её запах смотреть онлайн
    Cкачать фильм Её запах бесплатно
    Её запах скачать торрент в хорошем качестве
    Её запах смотреть онлайн бесплатно в хорошем качестве


    Вы не можете начинать темы
    Вы не можете отвечать на сообщения
    Вы не можете редактировать свои сообщения
    Вы не можете удалять свои сообщения
    Вы не можете голосовать в опросах
    Вы не можете прикреплять файлы к сообщениям
    Вы можете скачивать файлы