Лицензия

30

iTunes

мы

iTunes

1

1 сезон

Чернобыль

1 сезон

Ральф против интернета

MVO

Покемон. Детектив Пикачу

8 сезон

Игра престолов

iTunes

1+1

ИГРА 18+

pack

ВАЖНО

!!Акция!!

Alien_RageХит недели

RePack

Resident Evil 21
pack

RePack

Metro:Exodus

!!Акция!!

Alien_Rage

RePack

fifa19

RePack

Assassins Creed: Odyssey

RePack

NEED FOR SPEED™ PAYBACK

3 сезон

9 сезон

Бесстыжие 9 сезон

Все сериалы

все сериалы на PB.wtf

RePack

FAR CRY 5
Ребята, катастрофически не хватает 2730р. для оплаты серверов за МАЙ (всвязи с блокировками трафик упал в 3 раза), 1-2р., выручайте.
  

Великолепная пятерка / Сезон: 1 / Серии: 1- 16 из 32 (Сергей Полуянов) [2019 г., Детектив, драма, WEB-DLRip] piratbit.cc

Великолепная пятерка через торрент piratbit.cc

Раздают: 1 [ 86 KB/s ]
Размер: 7.94 GB | Добавлен: 9 ч. назад | Торрент скачан:3 раза
Скачать  

29-05-2019 09:15 Великолепная пятерка Скачать торрент  

Великолепная пятерка
Год выпуска: 2019
Страна: Россия, «Триикс Медиа» по заказу Пятого канала
Жанр: Детектив, драма
Продолжительность: 32 х ~ 00:45:00
Субтитры: нет

Режиссер: Сергей Полуянов



В ролях: Павел Григорьев, Андрей Горбачёв, Алексей Красноцветов, Нодар Джанелидзе, Константин Гришанов, Егор Кутенков, Екатерина Проскурина, Евгения Любимова, Олеся Бережная, Анна Лутцева, Елизавета Ковалёва, Анна Щетинина, Наталья Мызникова, Вячеслав Аркунов, Глафира Козулина

Описание: О буднях оперов «убойного» отдела Петровского РОВД Петербурга. Пятёрка — по количеству сотрудников. Майор Павел Шапошников, капитаны Дмитрий Красавченко и Тимур Бубнов, старший лейтенант Антон Ветров и лейтенант Владимир Кузьмин. Пять разных характеров, которые сплотил их командир, подполковник Андрей Голованов — человек с хорошим чувством юмора и богатым прошлым. Он еще помнит, когда в Петербурге были улицы разбитых фонарей. Время изменилось: милиция стала полицией, город преобразился, но человеческие страсти по-прежнему кипят вовсю. Месть, зависть, страх, любострастие, корысть толкают одних на преступления, а честь, совесть, справедливость и смелость заставляют других противостоять злу. Герои «великолепной пятёрки» наказывают зло ежедневно. Удивительно, но в этой рутине у них остается время на любовь, дружбу и юмор.

Качество: WEB-DLRip
Формат: AVI
Видео кодек: XviD
Аудио кодек: AC3
Видео: XviD, ~ 1600 Кбит/с, 720x400, 25 кадр/с
Аудио#1: AC3, 2 ch, 192 Кбит/с
скриншот   скриншот   скриншот   скриншот  

General
Complete name : C:\Users\user\Downloads\Video\01. Великолепная Пятерка.2019. WEB-DLRip. Files-x.avi
Format : AVI
Format/Info : Audio Video Interleave
File size : 515 MiB
Duration : 39mn 58s
Overall bit rate : 1 803 Kbps
Writing application : VirtualDubMod 1.5.10.3 | www.virtualdub-fr.org || (build 2550/release)
Writing library : VirtualDubMod build 2550/release

Video
ID : 0
Format : MPEG-4 Visual
Format profile : Advanced Simple@L5
Format settings, BVOP : 1
Format settings, QPel : No
Format settings, GMC : No warppoints
Format settings, Matrix : Custom
Codec ID : XVID
Codec ID/Hint : XviD
Duration : 39mn 58s
Bit rate : 1 601 Kbps
Width : 720 pixels
Height : 400 pixels
Display aspect ratio : 16:9
Frame rate : 25.000 fps
Color space : YUV
Chroma subsampling : 4:2:0
Bit depth : 8 bits
Scan type : Progressive
Compression mode : Lossy
Bits/(Pixel*Frame) : 0.222
Stream size : 458 MiB (89%)
Writing library : XviD 73

Audio
ID : 1
Format : AC-3
Format/Info : Audio Coding 3
Mode extension : CM (complete main)
Codec ID : 2000
Duration : 39mn 58s
Bit rate mode : Constant
Bit rate : 192 Kbps
Channel(s) : 2 channels
Channel positions : Front: L R
Sampling rate : 48.0 KHz
Bit depth : 16 bits
Compression mode : Lossy
Stream size : 54.9 MiB (11%)
Alignment : Split accross interleaves
Interleave, duration : 40 ms (1.00 video frame)
Interleave, preload duration : 500 ms

Внимание! Раздача ведётся путём добавления новых серий; при каждом добавлении создётся новый торрент. Чтобы начать докачку новой серии, пользователям необходимо сделать следующее:
  • Остановить скачивание,
  • Удалить старый торрент у себя из клиента (старые серии удалять не надо),
  • Скачать новый торрент и запустить его у себя в клиенте вместо старого, при этом указать клиенту путь в старую папку куда и должно происходить скачивание новых серий.
Ваш клиент при этом должен произвести хеширование (проверку) старой папки (если не производит сам - помогите ему сделать это), и будет докачивать только те серии которых у вас ещё нет. Старые серии при этом не удаляются, а продолжают раздаваться!

Eсли вы уже удалили старые серии, то предотвратить повторную закачку старых серий можно, отжав галочку в соответсвующих местах при запуске нового торрента. По возможности, желательно не удалять старые серии как можно дольше чтобы релизёр не столько продолжал раздавать старые серии, а смог сконцентрироваться на новых.
piratbit.cc



Скачать Великолепная пятерка через торрент http://pic1.kartinco.top/images/12/f2ou9.jpg Скачать фильм Великолепная пятерка через торрент бесплантно в хорошем качестве Описание: О буднях оперов «убойного» отдела Петровского РОВД Петербурга. Пятёрка — по количеству сотрудников. Майор Павел Шапошников, ... 10 10 3
Торрент: Зарегистрирован [2019-06-25 16:00] · скачан: 3 раз
Статус: √ проверено
Размер: 7.94 GB
Как cкачать? Как скачать Великолепная пятерка через торрент | qTorrent



Последний раз редактировалось: oleg8 (2019-06-25 16:00), всего редактировалось 3 раз(а)


>> Регистрируемся здесь <<






Отзывы и комментарии о схеме читаем и пишем здесь: ---> Отзывы и комментарии о схеме

Новые благодарочки в телеграм довольных пользователей:
скриншот   скриншот   скриншот   скриншот   скриншот

18-06-2019 18:10 Великолепная пятерка Скачать торрент  

А на постере их ШЕСТЬ! Мда.....piratbit.cc



19-06-2019 16:04 Великолепная пятерка Скачать торрент  

FaLLn29 писал(а):

А на постере их ШЕСТЬ! Мда.....

Один мимо проходил..piratbit.cc



    Дорогой пользователь! Огромная просьба, поблагодарите релизера, оцените раздачу и оставьте свои комментарий, если Вы скачали Великолепная пятерка через торрент бесплатно! Внесите свою лепту в развитие PiratBit!
    Комментировать посты могут только пользователи прошедшие не сложную регистрацию
    Показать сообщения:    

    Великолепная пятерка через торрент
    Скачать бесплатно Великолепная пятерка
    Великолепная пятерка скачать торрент
    Великолепная пятерка смотреть онлайн
    Cкачать фильм Великолепная пятерка бесплатно
    Великолепная пятерка скачать торрент в хорошем качестве
    Великолепная пятерка смотреть онлайн бесплатно в хорошем качестве


    Вы не можете начинать темы
    Вы не можете отвечать на сообщения
    Вы не можете редактировать свои сообщения
    Вы не можете удалять свои сообщения
    Вы не можете голосовать в опросах
    Вы не можете прикреплять файлы к сообщениям
    Вы можете скачивать файлы