Лицензия

30

iTunes

мы

iTunes

1

1 сезон

Чернобыль

1 сезон

Ральф против интернета

MVO

Покемон. Детектив Пикачу

8 сезон

Игра престолов

iTunes

1+1

ИГРА 18+

pack

ВАЖНО

!!Акция!!

Alien_RageХит недели

RePack

Resident Evil 21
pack

RePack

Metro:Exodus

!!Акция!!

Alien_Rage

RePack

fifa19

RePack

Assassins Creed: Odyssey

RePack

NEED FOR SPEED™ PAYBACK

3 сезон

9 сезон

Бесстыжие 9 сезон

Все сериалы

все сериалы на PB.wtf

RePack

FAR CRY 5
Ребята, катастрофически не хватает 2730р. для оплаты серверов за МАЙ (всвязи с блокировками трафик упал в 3 раза), 1-2р., выручайте.
  

Астерикс и тайное зелье / Astérix: Le secret de la potion magique (Александр Астье, Луи Клиши) [2018, мультфильм, фэнтези, BDRip 1080p, 60 fps] DUB (rus, ukr) [iTunes] piratbit.cc

Астерикс и тайное зелье через торрент piratbit.cc

Раздают: 2 [ 0 KB/s ]
Размер: 17.6 GB | Добавлен: 28 д. назад | Торрент скачан:74 раза
Скачать  

29-05-2019 10:05 Астерикс и тайное зелье Скачать торрент  

Астерикс и тайное зелье / Astérix: Le secret de la potion magique««Срочно требуется друид»»

Год выпуска: 2018
Страна: Франция
Жанр: мультфильм, фэнтези
Продолжительность: 01:24:54
Перевод: Дублированный | iTunes
Субтитры: Русские (полные)
Режиссер: Александр Астье , Луи Клиши
В ролях:

Кристиан Клавье (Astérix, озвучка), Гийом Бриа (Obélix, озвучка), Алекс Лутц (Teleferix, озвучка), Александр Астье (Oursenplus / Huiledolix / Blodimérix, озвучка), Эли Семун (Cubitus, озвучка), Даниэль Месгиш (Sulfurix, озвучка), Бернар Алан (Panoramix, озвучка), Франсуа Морель (Ordralfabétix, озвучка), Лионель Астье (Cetautomatix, озвучка), Флоренс Форести (Bonemine, озвучка), Ethan Astier (Loustix, озвучка), Доминик Бастьен (Bazunix / Caustix, озвучка)
Описание:
Могучие галлы издревле черпали силу в секретном напитке, который готовил великий старец. Но пришла беда, откуда не ждали - почтенный друид свалился с дерева и сломал обе ноги. Теперь Астериксу и Обеликсу предстоит отправиться в опасное путешествие, чтобы отыскать нового друида, достойного постичь рецепт тайного зелья.
Рейтинг:

Качество: BDRip 1080p
Формат: MKV
Видео: AVC | 1920 x 800 | 59.940 fps | 26.8 Мбит/сек
Аудио #1: AC-3 | 5.1 | 48 kHz | 384 Кбит/сек | 16 bit | Дубляж (iTunes) | RUS |
Аудио #2: AC-3 | 5.1 | 48 kHz | 384 Кбит/сек | 16 bit | Дубляж (iTunes) | UKR |
Аудио #3: DTS-HD MA | 5.1 | 48 kHz | 1509 Кбит/сек | 24 bit | Оригинал | French
Навигация по главам: есть

D:\2018 Астерикс и тайное зелье BDRip 1080p 60 fps.mkv
General
Unique ID : 30604199613225322026805166847911669122 (0x17062789C46ADAC1EAA5375E411A2D82)
Complete name : D:\2018 Астерикс и тайное зелье BDRip 1080p 60 fps.mkv
Format : Matroska
Format version : Version 4 / Version 2
File size : 17.6 GiB
Duration : 1h 24mn
Overall bit rate mode : Variable
Overall bit rate : 29.7 Mbps
Movie name : Астерикс и тайное зелье / Asterix Le Secret de la Potion Magique
Encoded date : UTC 2019-04-09 21:22:56
Writing application : mkvmerge v22.0.0 ('At The End Of The World') 64-bit
Writing library : libebml v1.3.5 + libmatroska v1.4.8
DURATION : 01:17:40.417000000
NUMBER_OF_FRAMES : 921
NUMBER_OF_BYTES : 70217
_STATISTICS_WRITING_APP : mkvmerge v22.0.0 ('At The End Of The World') 64-bit
_STATISTICS_WRITING_DATE_UTC : 2019-04-09 21:22:56
_STATISTICS_TAGS : BPS DURATION NUMBER_OF_FRAMES NUMBER_OF_BYTES
Video #1
ID : 1
Format : AVC
Format/Info : Advanced Video Codec
Format profile : High@L4.1
Format settings, CABAC : Yes
Format settings, ReFrames : 5 frames
Codec ID : V_MPEG4/ISO/AVC
Duration : 1h 24mn
Bit rate : 26.8 Mbps
Nominal bit rate : 25.0 Mbps
Width : 1 920 pixels
Height : 800 pixels
Display aspect ratio : 2.40:1
Frame rate : 60.000 fps
Color space : YUV
Chroma subsampling : 4:2:0
Bit depth : 8 bits
Scan type : Progressive
Bits/(Pixel*Frame) : 0.290
Stream size : 15.9 GiB (90%)
Writing library : x264 core 146 r2538 121396c
Encoding settings : cabac=1 / ref=5 / deblock=1:1:1 / analyse=0x3:0x113 / me=umh / subme=9 / psy=1 / psy_rd=0.40:0.00 / mixed_ref=1 / me_range=32 / chroma_me=1 / trellis=2 / 8x8dct=1 / cqm=0 / deadzone=21,11 / fast_pskip=1 / chroma_qp_offset=-2 / threads=12 / lookahead_threads=2 / sliced_threads=0 / nr=0 / decimate=1 / interlaced=0 / bluray_compat=0 / constrained_intra=0 / bframes=5 / b_pyramid=2 / b_adapt=2 / b_bias=0 / direct=3 / weightb=1 / open_gop=0 / weightp=2 / keyint=600 / keyint_min=60 / scenecut=40 / intra_refresh=0 / rc_lookahead=60 / rc=2pass / mbtree=1 / bitrate=25000 / ratetol=1.0 / qcomp=0.60 / qpmin=0 / qpmax=69 / qpstep=4 / cplxblur=20.0 / qblur=0.5 / vbv_maxrate=50000 / vbv_bufsize=50000 / nal_hrd=none / filler=0 / ip_ratio=1.40 / aq=1:0.60
Language : English
Default : Yes
Forced : No
DURATION : 01:24:54.967000000
NUMBER_OF_FRAMES : 305698
NUMBER_OF_BYTES : 15919157005
_STATISTICS_WRITING_APP : mkvmerge v22.0.0 ('At The End Of The World') 64-bit
_STATISTICS_WRITING_DATE_UTC : 2019-04-09 21:22:56
_STATISTICS_TAGS : BPS DURATION NUMBER_OF_FRAMES NUMBER_OF_BYTES
Audio #2
ID : 2
Format : AC-3
Format/Info : Audio Coding 3
Mode extension : CM (complete main)
Format settings, Endianness : Big
Codec ID : A_AC3
Duration : 1h 24mn
Bit rate mode : Constant
Bit rate : 384 Kbps
Channel(s) : 6 channels
Channel positions : Front: L C R, Side: L R, LFE
Sampling rate : 48.0 KHz
Bit depth : 16 bits
Compression mode : Lossy
Stream size : 233 MiB (1%)
Title : iTunes
Language : Russian
Default : Yes
Forced : Yes
Audio #3
ID : 3
Format : AC-3
Format/Info : Audio Coding 3
Mode extension : CM (complete main)
Format settings, Endianness : Big
Codec ID : A_AC3
Duration : 1h 24mn
Bit rate mode : Constant
Bit rate : 384 Kbps
Channel(s) : 6 channels
Channel positions : Front: L C R, Side: L R, LFE
Sampling rate : 48.0 KHz
Bit depth : 16 bits
Compression mode : Lossy
Stream size : 233 MiB (1%)
Title : iTunes
Language : Ukrainian
Default : No
Forced : No
Audio #4
ID : 4
Format : DTS
Format/Info : Digital Theater Systems
Format profile : MA / Core
Codec ID : A_DTS
Duration : 1h 24mn
Bit rate mode : Variable
Bit rate : 1 561 Kbps / 1 510 Kbps
Channel(s) : 6 channels
Channel positions : Front: L C R, Side: L R, LFE
Sampling rate : 48.0 KHz
Bit depth : 24 bits
Compression mode : Lossless / Lossy
Title : Original
Language : French
Default : No
Forced : No
Text #5
ID : 5
Format : UTF-8
Codec ID : S_TEXT/UTF8
Codec ID/Info : UTF-8 Plain Text
Title : Full
Language : Russian
Default : No
Forced : No
Menu
00:00:00.000 : fr:Глава 01
00:06:16.042 : fr:Глава 02
00:15:43.250 : fr:Глава 03
00:21:45.167 : fr:Глава 04
00:28:47.792 : fr:Глава 05
00:35:00.000 : fr:Глава 06
00:42:39.458 : fr:Глава 07
00:50:30.333 : fr:Глава 08
00:57:33.708 : fr:Глава 09
01:04:05.458 : fr:Глава 10
01:13:32.000 : fr:Глава 11
01:21:07.333 : fr:Глава 12
piratbit.cc



Скачать Астерикс и тайное зелье через торрент https://d.radikal.ru/d03/1905/7b/16aa35b6438e.png Скачать фильм Астерикс и тайное зелье через торрент бесплантно в хорошем качестве Описание: Могучие галлы издревле черпали силу в секретном напитке, который готовил великий старец. Но пришла беда, откуда не ждали - ... 10 10 4
Торрент: Зарегистрирован [2019-05-29 10:05] · скачан: 74 раз
Статус: √ проверено
Размер: 17.6 GB
Как cкачать? Как скачать Астерикс и тайное зелье через торрент | qTorrent

% Раздел Тема Автор DL S | L
Ultra HD (UHD: 2K, 4K, 8K) [ 9.93 GB ] Астерикс и тайное зелье / Astérix: Le secret de la potion magique [2018 мультфильм UHD BDRip 2160p] DUB sheker187 Скачать
1 | 0
Зарубежные Мультфильмы (BDRip 1080p, 720p, Blu-ray, BD-Remux) [ 7.22 GB ] Астерикс и тайное зелье / Astérix: Le secret de la potion magique [2018 мультфильм BDRip 1080p] DUB bober100 Скачать
10 | 0
Иностранные мультфильмы [ 1.42 GB ] Астерикс и тайное зелье / Astérix: Le secret de la potion magique [2018 мультфильм BDRip] дубляж - Twi7ter Скачать
9 | 0
Ultra HD (UHD: 2K, 4K, 8K) [ 41.32 GB ] Астерикс и тайное зелье / Astérix: Le secret de la potion magique [2018 мультфильм UHD BDRemux 2160p] DUB bober100 Скачать
2 | 1
3D Мультфильмы [ 4.99 GB ] Астерикс и тайное зелье 3Д / Astérix: Le secret de la potion magique 3D [2018 мультфильм BDRip 1080p] [Half OverUnder / Вертикальная анаморфная стереопара] DUB bober100 Скачать
1 | 0
Иностранные мультфильмы [ 1.42 GB ] Астерикс и тайное зелье / Astérix: Le secret de la potion magique [2018 мультфильм BDRip] bober100 Скачать
314 | 6
Зарубежные Мультфильмы (BDRip 1080p, 720p, Blu-ray, BD-Remux) [ 3.66 GB ] Астерикс и тайное зелье / Astérix: Le secret de la potion magique [2018 мультфильм BDRip 720p] DUB bober100 Скачать
7 | 0


>> Регистрируемся здесь <<






Отзывы и комментарии о схеме читаем и пишем здесь: ---> Отзывы и комментарии о схеме

Новые благодарочки в телеграм довольных пользователей:
скриншот   скриншот   скриншот   скриншот   скриншот
    Дорогой пользователь! Огромная просьба, поблагодарите релизера, оцените раздачу и оставьте свои комментарий, если Вы скачали Астерикс и тайное зелье через торрент бесплатно! Внесите свою лепту в развитие PiratBit!
    Комментировать посты могут только пользователи прошедшие не сложную регистрацию
    Показать сообщения:    

    Астерикс и тайное зелье через торрент
    Скачать бесплатно Астерикс и тайное зелье
    Астерикс и тайное зелье скачать торрент
    Астерикс и тайное зелье смотреть онлайн
    Cкачать фильм Астерикс и тайное зелье бесплатно
    Астерикс и тайное зелье скачать торрент в хорошем качестве
    Астерикс и тайное зелье смотреть онлайн бесплатно в хорошем качестве


    Вы не можете начинать темы
    Вы не можете отвечать на сообщения
    Вы не можете редактировать свои сообщения
    Вы не можете удалять свои сообщения
    Вы не можете голосовать в опросах
    Вы не можете прикреплять файлы к сообщениям
    Вы можете скачивать файлы