Лицензия

30

iTunes

мы

iTunes

1

1 сезон

Чернобыль

1 сезон

Ральф против интернета

MVO

Покемон. Детектив Пикачу

8 сезон

Игра престолов

iTunes

1+1

ИГРА 18+

pack

ВАЖНО

!!Акция!!

Alien_RageХит недели

RePack

Resident Evil 21
pack

RePack

Metro:Exodus

!!Акция!!

Alien_Rage

RePack

fifa19

RePack

Assassins Creed: Odyssey

RePack

NEED FOR SPEED™ PAYBACK

3 сезон

9 сезон

Бесстыжие 9 сезон

Все сериалы

все сериалы на PB.wtf

RePack

FAR CRY 5
Ребята, катастрофически не хватает 2730р. для оплаты серверов за МАЙ (всвязи с блокировками трафик упал в 3 раза), 1-2р., выручайте.
  

Благие знамения / Good Omens / Сезон: 1 / Серии: 1-6 из 6 (Дуглас Маккиннон) [2019, фэнтези, комедия, WEB-DL 1080p] [MVO] (AlexFilm) piratbit.cc

Благие знамения через торрент piratbit.cc

Качают: 1 [ 0 KB/s ]
Размер: 20.05 GB | Добавлен: 13 д. назад | Торрент скачан:28 раз
Скачать  

01-06-2019 22:54 Благие знамения Скачать торрент  

Благие знамения | Good Omens
«The end is nigh»

Производство: Великобритания, США
Год выпуска: 2019
Жанр: фэнтези, комедия
Продолжительность: ~ 00:51:00 серия

Перевод: Профессиональный (многоголосый закадровый) | AlexFilm

Режиссер: Дуглас Маккиннон

В ролях: Майкл Шин, Дэвид Теннант, Фрэнсис МакДорманд, Шан Брук, Дэниэл Мейс, Сэм Тейлор Бак, Джон Хэмм, Адриа Архона, Пол Чахиди, Нед Деннехи
Описание:
В центре сюжета ангел Азирафель и демон Кроули, которые объединяют усилия, чтобы предотвратить конец света, так как за долгие века успели привыкнуть к жизни на земле.


Качество видео: WEBDL 720p
Формат: MKV
Видео: AVC, 1920 x 1080 (1.778), 25.000 fps, ~7950 kbps
Аудио Rus: AC-3, 48 kHz, 6 ch, 384 kbps |AlexFilm|
Аудио Eng: E-AC-3, 48 kHz, 6 ch, 640 kbps |Original|
Субтитры: Eng (SDH)
Реклама: Отсутствует

Релиз:

Перевод: Константин Кривоногов
Монтаж и сведение звука: Михаил Федосеев
Роли озвучивали:
    • Маргарита Корш
    • Екатерина Кабашова
    • Пётр Гланц Иващенко
    • Кирилл Патрино
    • Михаил Цареградский
    • Алексей Гнеушев
    • Михаил Федосеев

Общее
Уникальный идентификатор : 146768479047796130346389125622291884005 (0x6E6A94B3D53836083FCF5D79581DE7E5)
Полное имя : E:\_Сериалы\_Сериалы\Благие знамения\Good Omens.S01.WEBRip.1080p.Rus.Eng.AlexFilm\Good.Omens.S01E01.WEBRip.1080p.Rus.Eng.AlexFilm.mkv
Формат : Matroska
Версия формата : Version 4
Размер файла : 3,21 Гбайт
Продолжительность : 51 м. 15 с.
Общий поток : 8977 Кбит/сек
Дата кодирования : UTC 2019-06-01 19:10:48
Программа кодирования : mkvmerge v34.0.0 ('Sight and Seen') 64-bit
Библиотека кодирования : libebml v1.3.7 + libmatroska v1.5.0

Видео
Идентификатор : 1
Формат : AVC
Формат/Информация : Advanced Video Codec
Профиль формата : High@L4
Настройки формата : CABAC / 4 Ref Frames
Параметр CABAC формата : Да
Параметр RefFrames формата : 4 кадра
Идентификатор кодека : V_MPEG4/ISO/AVC
Продолжительность : 51 м. 15 с.
Вид битрейта : Постоянный
Битрейт : 7950 Кбит/сек
Номинальный битрейт : 10000 Кбит/сек
Ширина : 1920 пикселей
Высота : 1080 пикселей
Соотношение сторон : 16:9
Режим частоты кадров : Постоянный
Частота кадров : 25,000 кадров/сек
Цветовое пространство : YUV
Субдискретизация насыщенности : 4:2:0
Битовая глубина : 8 бит
Тип развёртки : Прогрессивная
Бит/(Пиксели*Кадры) : 0.153
Размер потока : 2,85 Гбайт (89%)
Язык : English
Default : Да
Forced : Нет
Цветовой диапазон : Limited
Основные цвета : BT.709
Характеристики трансфера : BT.709
Коэффициенты матрицы : BT.709

Аудио #1
Идентификатор : 2
Формат : AC-3
Формат/Информация : Audio Coding 3
Коммерческое название : Dolby Digital
Идентификатор кодека : A_AC3
Продолжительность : 51 м. 15 с.
Вид битрейта : Постоянный
Битрейт : 384 Кбит/сек
Каналы : 6 каналов
Channel layout : L R C LFE Ls Rs
Частота : 48,0 КГц
Частота кадров : 31,250 кадров/сек (1536 SPF)
Битовая глубина : 16 бит
Метод сжатия : С потерями
Размер потока : 141 Мбайт (4%)
Заголовок : DD5.1 AlexFilm
Язык : Russian
ServiceKind/String : Complete Main
Default : Нет
Forced : Нет

Аудио #2
Идентификатор : 3
Формат : E-AC-3
Формат/Информация : Enhanced AC-3
Коммерческое название : Dolby Digital Plus
Идентификатор кодека : A_EAC3
Продолжительность : 51 м. 15 с.
Вид битрейта : Постоянный
Битрейт : 640 Кбит/сек
Каналы : 6 каналов
Channel layout : L R C LFE Ls Rs
Частота : 48,0 КГц
Частота кадров : 31,250 кадров/сек (1536 SPF)
Метод сжатия : С потерями
Размер потока : 235 Мбайт (7%)
Язык : English
ServiceKind/String : Complete Main
Default : Да
Forced : Нет

Текст #1
Идентификатор : 4
Формат : UTF-8
Идентификатор кодека : S_TEXT/UTF8
Идентификатор кодека/Информация : UTF-8 Plain Text
Продолжительность : 49 м. 2 с.
Битрейт : 128 бит/сек
ElementCount : 828
Размер потока : 46,2 Кбайт (0%)
Язык : Russian
Default : Нет
Forced : Нет

Текст #2
Идентификатор : 5
Формат : UTF-8
Идентификатор кодека : S_TEXT/UTF8
Идентификатор кодека/Информация : UTF-8 Plain Text
Продолжительность : 49 м. 6 с.
Битрейт : 87 бит/сек
ElementCount : 1020
Размер потока : 31,5 Кбайт (0%)
Заголовок : English
Язык : English
Default : Нет
Forced : Нет

скриншот  скриншот  скриншот  

Раздача ведётся путём добавления новых серий; при каждом добавлении создаётся новый торрент.
Чтобы начать докачку новой серии, пользователям необходимо сделать следующее:
1. остановить скачивание,
2. удалить старый торрент у себя из клиента (старые серии удалять не надо),
3. скачать новый торрент и запустить его у себя в клиенте вместо старого, при этом указать клиенту путь в старую папку, куда и должно происходить скачивание новых серий.

Ваш клиент при этом должен произвести хеширование (проверку) старой папки (если не производит сам - помогите ему сделать это), и будет докачивать только те серии которых у вас ещё нет. Старые серии при этом не удаляются, а продолжают раздаваться!

Eсли вы уже удалили старые серии, то предотвратить повторную закачку старых серий можно, отжав галочку в соответствующих местах при запуске нового торрента. По возможности, желательно не удалять старые серии как можно дольше, чтобы релизёр не столько продолжал раздавать старые серии, а смог сконцентрироваться на новых.

Совет для тех, кто не хочет ждать перехеширования:
Создайте ещё одну папку рядом с папкой сериала (рядом, а не в ней!!!). Каждую новую серию после удачной загрузки копируйте в новую папку так чтобы ваша основная папка всегда была пуста. Когда ваш новый торрент предложит вам закачать все файлы, выберете только последнюю. Для сидирования же укажите адрес новой папки.

Как закачать отдельный файл из торрента или докачать ранее пропущенные файлы торрента!

1. Открыть торрент
2. Снять галки с тех файлов торрента, которые мы не хотим закачивать. Оставляем только на нужных нам файлах (файле).
3. Нажать О.К.

В клиенте utorrent

Инструкция

1) Открыть торрент


2) Снять галки с тех файлов торрента, которые мы не хотим закачивать:

* либо вручную, снимая с каждого файла галку( скрин №1)
* либо, нажав кнопку "Снять метки (Select None)", сняв сразу со всех файлов(скрин №2)
№1

№2

Оставляем только на нужных нам файлах (файле).

3)Нажать О.К

Приятного просмотра!!!piratbit.cc



Скачать Благие знамения через торрент https://i5.imageban.ru/out/2019/06/01/c953d7dfb1e8064251487c44c6349d5a.png Скачать фильм Благие знамения через торрент бесплантно в хорошем качестве Описание:В центре сюжета ангел Азирафель и демон Кроули, которые объединяют усилия, чтобы предотвратить конец света, так как за долгие века ... 10 10 3
Торрент: Зарегистрирован [2019-06-12 04:00] · скачан: 28 раз
Статус: √ проверено
Размер: 20.05 GB
Как cкачать? Как скачать Благие знамения через торрент | qTorrent

% Раздел Тема Автор DL S | L
Зарубежные сериалы [ 20.49 GB ] Благие знамения / Good Omens / Сезон: 1 / Серии: 1-6 из 6 [2019 WEB-DL 1080p] MVO [TVShows] bober100 Скачать
3 | 1
Зарубежные сериалы [ 1.36 GB ] Благие знамения / Good Omens / Сезон 1 / Серии 1- из 6 [2019 WEB-DL 720p] MVO [LostFilm] bober100 Скачать
1 | 0
Зарубежные сериалы [ 1015 MB ] Благие знамения / Good Omens / Сезон 1 / Серии 1- из 6 [2019 WEB-DLRip] MVO [LostFilm] bober100 Скачать
2 | 0
Зарубежные сериалы [ 6.39 GB ] Благие знамения / Good Omens / Сезон: 1 / Серии: 1-6 из 6 [2019 WEBRip] MVO [AlexFilm] bober100 Скачать
8 | 2
Зарубежные сериалы [ 18.12 GB ] Благие знамения / Good Omens / Сезон: 1 / Серии: 1-6 из 6 [2019 WEB-DL 1080p] MVO [IdeaFilm] bober100 Скачать
1 | 0
Зарубежные сериалы [ 11.36 GB ] Благие знамения / Good Omens / Сезон: 1 / Серии: 1-6 из 6 [2019 WEB-DL 720p] MVO [IdeaFilm] bober100 Скачать
3 | 0
Зарубежные сериалы [ 4.9 GB ] Благие знамения / Good Omens / Сезон: 1 / Серии: 1-6 из 6 [2019 WEB-DLRip] MVO [IdeaFilm] bober100 Скачать
1 | 1


>> Регистрируемся здесь <<






Отзывы и комментарии о схеме читаем и пишем здесь: ---> Отзывы и комментарии о схеме

Новые благодарочки в телеграм довольных пользователей:
скриншот   скриншот   скриншот   скриншот   скриншот

11-06-2019 05:14 Благие знамения Скачать торрент  

где 6 серия то? очень хочется досмотреть )))piratbit.cc





Последний раз редактировалось: ssavenkoff (2019-06-11 05:16), всего редактировалось 1 раз

11-06-2019 05:15 Благие знамения Скачать торрент  

killermax2013, а где 6 серия?piratbit.cc
Kkillermax2013 писал(а):

не озвучена еще



11-06-2019 11:11 Благие знамения Скачать торрент  

killermax2013, спасибо понятноpiratbit.cc



    Дорогой пользователь! Огромная просьба, поблагодарите релизера, оцените раздачу и оставьте свои комментарий, если Вы скачали Благие знамения через торрент бесплатно! Внесите свою лепту в развитие PiratBit!
    Комментировать посты могут только пользователи прошедшие не сложную регистрацию
    Показать сообщения:    

    Благие знамения через торрент
    Скачать бесплатно Благие знамения
    Благие знамения скачать торрент
    Благие знамения смотреть онлайн
    Cкачать фильм Благие знамения бесплатно
    Благие знамения скачать торрент в хорошем качестве
    Благие знамения смотреть онлайн бесплатно в хорошем качестве


    Вы не можете начинать темы
    Вы не можете отвечать на сообщения
    Вы не можете редактировать свои сообщения
    Вы не можете удалять свои сообщения
    Вы не можете голосовать в опросах
    Вы не можете прикреплять файлы к сообщениям
    Вы можете скачивать файлы