iTunes

1+1

iTunes

мы

iTunes

1

iTunes

Чернобыль

iTunes

Ральф против интернета

Лицензия

ПШазам

Лицензия

Игра престолов

Лицензия

30
pack

ВАЖНО

!!Акция!!

Alien_RageХит недели

RePack

Resident Evil 21

ИГРА 18+

pack

RePack

Metro:Exodus

!!Акция!!

Alien_Rage

RePack

fifa19

RePack

Assassins Creed: Odyssey

RePack

NEED FOR SPEED™ PAYBACK

3 сезон

9 сезон

Бесстыжие 9 сезон

Все сериалы

все сериалы на PB.wtf

RePack

FAR CRY 5
Ребята, катастрофически не хватает 7730р. для оплаты серверов за АВГУСТ (всвязи с блокировками трафик упал в 3 раза), 1-2р., выручайте.
  

Свадьбы и разводы / Сезон: 1 / Серии: 1-12 из 12 (Вардан Акопян) [2019, Мелодрама, HDTVRip 720p] piratbit.cc

Свадьбы и разводы через торрент piratbit.cc

Размер: 15.33 GB | Добавлен: 3 мес. 6 д. назад | Торрент скачан:18 раз
Скачать  

04-06-2019 01:24 Свадьбы и разводы Скачать торрент  

Свадьбы и разводы Год выпуска: 2019
Страна: Россия
Жанр: Мелодрама
Продолжительность: ~ 00:49:00 серия
Перевод: Не требуется
Субтитры: отсутствуют

Режиссер: Вардан Акопян



В ролях:

Антон Хабаров, Елена Николаева (II), Антон Денисенко, Рина Гришина, Данила Шевченко, Павел Ворожцов, Ирина Темичева, Анастасия Панина, Владимир Симонов, Олег Комаров (II), Ольга Тумайкина, Ирина Розанова, Любовь Германова, Анна Каменкова, Сергей Юшкевич, Алексей Гришин, Степан Девонин, Дмитрий Прокофьев, Александр Ревенко, Лада Чуровская, Алёна Коломина, Ольга Торощина, Анастасия Теплинская, Тата Хачатрян, Кирилл Иванов, Анастасия Куимова, Надя Славецкая, Евгения Розанова, Анна Донченко, Илья Исаев

Описание:

Женя и Марк работают в одном офисном центре. Она - владелица небольшого агентства по организации свадеб, настоящая брачная фея, и, кстати, скоро сама собирается замуж. Он – высококлассный адвокат, специализирующийся на разводах и разделе имущества. Каждый из них искренне любит свое дело и уверен, что что помогает людям стать счастливее. Однажды Женя и Марк знакомятся, и... Теперь Женя не так уверена, что хочет замуж за своего идеального Сашу. А Марк, похоже, встретил девушку, ради которой мог бы пересмотреть свои принципы убежденного одиночки. Каждая новая пара, будь то будущие молодожены у Жени, или будущие "бывшие" у Марка, подкидывает им новые темы для размышлений и споров. Удастся ли нашим героям понять друг друга и поверить, что любовь важнее принципов?

Качество: HDTVRip 720p
Формат: MKV

Видео: MPEG-4 AVC, ~ 3500 Кбит/с, 1280x720, 25 fps
Аудио: AC3, 2 ch, 192 Кбит/с
скриншот  скриншот  скриншот  скриншот  

Общее
Уникальный идентификатор : 209739929997273030801518526528953901368 (0x9DCA70F09E457323B4B6320CCC8DE138)
Полное имя : D:Svadby i razvody.HDTVRip.(720p).GeneralFilm1.Svadby i razvody.HDTVRip.(720p).GeneralFilm.mkv
Формат : Matroska
Версия формата : Version 2
Размер файла : 1,27 Гбайт
Продолжительность : 49 м. 11 с.
Общий поток : 3694 Кбит/сек
Дата кодирования : UTC 2019-06-03 21:43:40
Программа кодирования : mkvmerge v7.8.0 ('River Man') 32bit built on Apr 3 2015 12:11:22
Библиотека кодирования : libebml v1.3.1 + libmatroska v1.4.2

Видео
Идентификатор : 1
Формат : AVC
Формат/Информация : Advanced Video Codec
Профиль формата : High@L4.1
Параметр CABAC формата : Да
Параметр ReFrames формата : 9 кадров
Идентификатор кодека : V_MPEG4/ISO/AVC
Продолжительность : 49 м. 11 с.
Битрейт : 3500 Кбит/сек
Ширина : 1280 пикселей
Высота : 720 пикселей
Соотношение сторон : 16:9
Режим частоты кадров : Постоянный
Частота кадров : 25,000 кадров/сек
Цветовое пространство : YUV
Субдискретизация насыщенности : 4:2:0
Битовая глубина : 8 бит
Тип развёртки : Прогрессивная
Бит/(Пиксели*Кадры) : 0.152
Размер потока : 1,18 Гбайт (93%)
Библиотека кодирования : x264 core 146 r2538 121396c
Настройки программы : cabac=1 / ref=9 / deblock=1:-2:-1 / analyse=0x3:0x113 / me=umh / subme=9 / psy=1 / psy_rd=1.00:0.15 / mixed_ref=1 / me_range=32 / chroma_me=1 / trellis=2 / 8x8dct=1 / cqm=0 / deadzone=21,11 / fast_pskip=0 / chroma_qp_offset=-3 / threads=18 / lookahead_threads=3 / sliced_threads=0 / nr=0 / decimate=1 / interlaced=0 / bluray_compat=0 / constrained_intra=0 / bframes=9 / b_pyramid=2 / b_adapt=2 / b_bias=0 / direct=1 / weightb=1 / open_gop=0 / weightp=2 / keyint=250 / keyint_min=25 / scenecut=40 / intra_refresh=0 / rc_lookahead=40 / rc=2pass / mbtree=0 / bitrate=3500 / ratetol=1.0 / qcomp=0.60 / qpmin=0 / qpmax=69 / qpstep=4 / cplxblur=20.0 / qblur=0.5 / vbv_maxrate=14000 / vbv_bufsize=14000 / nal_hrd=none / filler=0 / ip_ratio=1.40 / pb_ratio=1.30 / aq=2:1.00
Default : Да
Forced : Нет
Цветовой диапазон : Limited
Основные цвета : BT.709
Характеристики трансфера : BT.709
Коэффициенты матрицы : BT.709

Аудио
Идентификатор : 2
Формат : AC-3
Формат/Информация : Audio Coding 3
Расширение режима : CM (complete main)
Параметр Endianness формата : Big
Идентификатор кодека : A_AC3
Продолжительность : 49 м. 11 с.
Вид битрейта : Постоянный
Битрейт : 192 Кбит/сек
Каналы : 2 канала
Расположение каналов : Front: L R
Частота : 48,0 КГц
Частота кадров : 31,250 кадров/сек (1536 spf)
Битовая глубина : 16 бит
Метод сжатия : С потерями
Размер потока : 67,5 Мбайт (5%)
Default : Да
Forced : Нет

Когда раздача ведётся путём добавления новых серий, при каждом добавлении создётся новый торрент. Чтобы начать докачку новой серии, пользователям необходимо сделать следующее:
(1) остановить скачивание,
(2) удалить старый торрент у себя из клиента (старые серии удалять не надо),
(3) скачать новый торрент и запустить его у себя в клиенте вместо старого, при этом указать клиенту путь в старую папку, куда и должно происходить скачивание новых серий.
Ваш клиент при этом должен произвести хеширование (проверку) старой папки (если не производит сам - помогите ему сделать это), и будет докачивать только те серии, которых у вас ещё нет. Старые серии при этом не удаляются, а продолжают раздаваться!
Eсли вы уже удалили старые серии, то предотвратить повторную закачку старых серий можно, отжав галочку в соответсвующих местах при запуске нового торрента. По возможности, желательно не удалять старые серии как можно дольше, чтобы релизёр не столько продолжал раздавать старые серии, а смог сконцентрироваться на новых.
piratbit.cc



Скачать Свадьбы и разводы через торрент http://img15.lostpic.net/2019/06/03/88fd4a1a879c46b3467dbf89831148b0.jpg Скачать фильм Свадьбы и разводы через торрент бесплантно в хорошем качестве Описание: Женя и Марк работают в одном офисном центре. Она - владелица небольшого агентства по организации свадеб, настоящая брачная фея, ... 10 10 3
Торрент: Зарегистрирован [2019-06-13 17:42] · скачан: 18 раз
Статус: √ проверено
Размер: 15.33 GB
Как cкачать? Как скачать Свадьбы и разводы через торрент | qTorrent

% Раздел Тема Автор DL S | L
Наши сериалы [ 26.97 GB ] Свадьбы и разводы / Сезон: 1 / Серии: 1-12 из 12 [2019 Мело HDTV 1080i] bober100 Скачать
1 | 0
Наши сериалы [ 7.54 GB ] Свадьбы и разводы / Сезон: 1 / Серии: 1-12 из 12 [2019 Мело WEBRip-AVC] bober100 Скачать
1 | 0
Наши сериалы [ 7.57 GB ] Свадьбы и разводы / Сезон: 1 / Серии: 1-12 из 12 [2019 Мело WEB-DLRip] bober100 Скачать
1 | 0
Наши сериалы [ 7.03 GB ] Свадьбы и разводы / Сезон: 1 / Серии: 1-12 из 12 [2019 Мело SATRip] bober100 Скачать
1 | 0


>> Регистрируемся здесь <<






Отзывы и комментарии о схеме читаем и пишем здесь: ---> Отзывы и комментарии о схеме

Новые благодарочки в телеграм довольных пользователей:
скриншот   скриншот   скриншот   скриншот   скриншот
    Дорогой пользователь! Огромная просьба, поблагодарите релизера, оцените раздачу и оставьте свои комментарий, если Вы скачали Свадьбы и разводы через торрент бесплатно! Внесите свою лепту в развитие PiratBit!
    Комментировать посты могут только пользователи прошедшие не сложную регистрацию
    Показать сообщения:    

    Свадьбы и разводы через торрент
    Скачать бесплатно Свадьбы и разводы
    Свадьбы и разводы скачать торрент
    Свадьбы и разводы смотреть онлайн
    Cкачать фильм Свадьбы и разводы бесплатно
    Свадьбы и разводы скачать торрент в хорошем качестве
    Свадьбы и разводы смотреть онлайн бесплатно в хорошем качестве


    Вы не можете начинать темы
    Вы не можете отвечать на сообщения
    Вы не можете редактировать свои сообщения
    Вы не можете удалять свои сообщения
    Вы не можете голосовать в опросах
    Вы не можете прикреплять файлы к сообщениям
    Вы можете скачивать файлы