iTunes

1+1

iTunes

мы

iTunes

1

1 сезон

Чернобыль

1 сезон

Ральф против интернета

Лицензия

ПШазам

8 сезон

Игра престолов

Лицензия

30
pack

ВАЖНО

!!Акция!!

Alien_RageХит недели

RePack

Resident Evil 21

ИГРА 18+

pack

RePack

Metro:Exodus

!!Акция!!

Alien_Rage

RePack

fifa19

RePack

Assassins Creed: Odyssey

RePack

NEED FOR SPEED™ PAYBACK

3 сезон

9 сезон

Бесстыжие 9 сезон

Все сериалы

все сериалы на PB.wtf

RePack

FAR CRY 5
Ребята, катастрофически не хватает 2730р. для оплаты серверов за ИЮНЬ (всвязи с блокировками трафик упал в 3 раза), 1-2р., выручайте.
  

Предприятие «Божий дар» / Perpetual Grace, LTD / Сезон: 1 / Серии: 1-6 из 10 (Стив Конрад, Джим Уайтакер) [2019, драма, WEB-DL 1080p] MVO [DobleRec] piratbit.cc

Предприятие «Божий дар» через торрент piratbit.cc

Размер: 16.57 GB | Добавлен: 3 д. назад | Торрент скачан:1 раз
Скачать  

05-06-2019 07:27 Предприятие «Божий дар» Скачать торрент  

Предприятие «Божий дар» / Perpetual Grace, LTD
Год выпуска: 2019
Страна: США
Жанр: драма
Продолжительность: ~ 00:55:00
Перевод: Профессиональный (многоголосый) | DobleRec по заказу КиноПоиск
Субтитры: English (SDH)

Режиссер: Стив Конрад, Джим Уайтакер

rating


В ролях:

Джимми Симпсон, Бен Кингсли, Джеки Уивер, Луис Гусман, Дэймон Херриман, Крис Конрад, Дэна ДеЛоренцо, Дэш Уильямс, Элиана Х. Александр, Майкл Чернус

Описание:

История о мошеннике Джеймсе, который выбрал себе в жертву пожилого пастора. Однако тот оказался не так прост, каким кажется, и аферист пожалел о своем выборе.

Качество: WEB-DL 1080p
Формат: MKV

Видео: 1920x1080 at 23.976 fps, MPEG-4 AVC, ~5000 kbps avg
Аудио#1: Russian: 48 kHz, AAC, 2/0 (L,R) ch, ~245 kbps avg |Многоголосый закадровый, DobleRec|
Аудио#2: English: 48 kHz, AAC, 2/0 (L,R) ch, ~245 kbps avg
скриншот  скриншот  скриншот  скриншот  

Общее
Уникальный идентификатор : 253154591998452611830839363999847784165 (0xBE73CD09AD13D47488841675DA459EE5)
Полное имя : D:\Perpetual.Grace.LTD.S01.1080p.EPIX.WEB-DL.Rus.Eng_TeamHD\Perpetual.Grace.LTD.S01.Eleven.1080p.EPIX.WEB-DL.Rus.Eng_TeamHD.mkv
Формат : Matroska
Версия формата : Version 4 / Version 2
Размер файла : 2,05 Гбайт
Продолжительность : 53 м. 31 с.
Общий поток : 5474 Кбит/сек
Название фильма : Perpetual Grace, LTD S01E01 - ReJliz TeamHD by BenderBEST
Дата кодирования : UTC 2019-06-04 20:15:26
Программа кодирования : mkvmerge v8.3.0 ('Over the Horizon') 64bit
Библиотека кодирования : libebml v1.3.1 + libmatroska v1.4.2

Видео
Идентификатор : 1
Формат : AVC
Формат/Информация : Advanced Video Codec
Профиль формата : High@L4
Параметр CABAC формата : Да
Параметр RefFrames формата : 4 кадра
Идентификатор кодека : V_MPEG4/ISO/AVC
Продолжительность : 53 м. 29 с.
Битрейт : 5000 Кбит/сек
Ширина : 1920 пикселей
Высота : 1080 пикселей
Соотношение сторон : 16:9
Режим частоты кадров : Постоянный
Частота кадров : 23,976 (24000/1001) кадра/сек
Цветовое пространство : YUV
Субдискретизация насыщенности : 4:2:0
Битовая глубина : 8 бит
Тип развёртки : Прогрессивная
Бит/(Пиксели*Кадры) : 0.101
Размер потока : 1,86 Гбайт (91%)
Библиотека кодирования : x264 core 148 r2721 72d53ab
Настройки программы : cabac=1 / ref=4 / deblock=1:0:0 / analyse=0x3:0x133 / me=umh / subme=10 / psy=1 / psy_rd=1.00:0.00 / mixed_ref=1 / me_range=24 / chroma_me=1 / trellis=2 / 8x8dct=1 / cqm=0 / deadzone=21,11 / fast_pskip=1 / chroma_qp_offset=-2 / threads=34 / lookahead_threads=5 / sliced_threads=0 / nr=0 / decimate=1 / interlaced=0 / bluray_compat=0 / constrained_intra=0 / bframes=8 / b_pyramid=2 / b_adapt=2 / b_bias=0 / direct=3 / weightb=1 / open_gop=0 / weightp=2 / keyint=96 / keyint_min=48 / scenecut=40 / intra_refresh=0 / rc_lookahead=60 / rc=2pass / mbtree=1 / bitrate=5000 / ratetol=1.0 / qcomp=0.60 / qpmin=0 / qpmax=69 / qpstep=4 / cplxblur=20.0 / qblur=0.5 / vbv_maxrate=5500 / vbv_bufsize=10000 / nal_hrd=none / filler=0 / ip_ratio=1.40 / aq=1:1.00
Язык : English
Default : Да
Forced : Да
Цветовой диапазон : Full

Аудио #1
Идентификатор : 2
Формат : AAC
Формат/Информация : Advanced Audio Codec
Профиль формата : LC
Идентификатор кодека : A_AAC
Продолжительность : 53 м. 29 с.
Битрейт : 245 Кбит/сек
Каналы : 2 канала
Расположение каналов : Front: L R
Частота : 48,0 КГц
Частота кадров : 46,875 кадров/сек (1024 spf)
Метод сжатия : С потерями
Задержка видео : 9 мс.
Размер потока : 93,7 Мбайт (4%)
Заголовок : AAC 2.0 @ 245 kbps - MVO, DobleRec
Язык : Russian
Default : Да
Forced : Да

Аудио #2
Идентификатор : 3
Формат : AAC
Формат/Информация : Advanced Audio Codec
Профиль формата : LC
Идентификатор кодека : A_AAC
Продолжительность : 53 м. 29 с.
Битрейт : 245 Кбит/сек
Каналы : 2 канала
Расположение каналов : Front: L R
Частота : 48,0 КГц
Частота кадров : 46,875 кадров/сек (1024 spf)
Метод сжатия : С потерями
Размер потока : 93,8 Мбайт (4%)
Заголовок : AAC 2.0 @ 245 kbps
Язык : English
Default : Нет
Forced : Нет

Текст
Идентификатор : 4
Формат : UTF-8
Идентификатор кодека : S_TEXT/UTF8
Идентификатор кодека/Информация : UTF-8 Plain Text
Продолжительность : 53 м. 30 с.
Битрейт : 44 бит/сек
ElementCount : 690
Размер потока : 17,4 Кбайт (0%)
Язык : English
Default : Нет
Forced : Нет

Когда раздача ведётся путём добавления новых серий, при каждом добавлении создётся новый торрент. Чтобы начать докачку новой серии, пользователям необходимо сделать следующее:
(1) остановить скачивание,
(2) удалить старый торрент у себя из клиента (старые серии удалять не надо),
(3) скачать новый торрент и запустить его у себя в клиенте вместо старого, при этом указать клиенту путь в старую папку, куда и должно происходить скачивание новых серий.
Ваш клиент при этом должен произвести хеширование (проверку) старой папки (если не производит сам - помогите ему сделать это), и будет докачивать только те серии, которых у вас ещё нет. Старые серии при этом не удаляются, а продолжают раздаваться!
Eсли вы уже удалили старые серии, то предотвратить повторную закачку старых серий можно, отжав галочку в соответсвующих местах при запуске нового торрента. По возможности, желательно не удалять старые серии как можно дольше, чтобы релизёр не столько продолжал раздавать старые серии, а смог сконцентрироваться на новых.
piratbit.cc



Скачать Предприятие «Божий дар» через торрент https://i5.imageban.ru/out/2019/06/05/511c2f34dda8c7fb6afc2ab4531616cf.jpg Скачать фильм Предприятие «Божий дар» через торрент бесплантно в хорошем качестве Описание: История о мошеннике Джеймсе, который выбрал себе в жертву пожилого пастора. Однако тот оказался не так прост, каким кажется, и ... 10 10 4
Торрент: Зарегистрирован [2019-07-15 11:25] · скачан: 1 раз
Статус: √ проверено
Размер: 16.57 GB
Как cкачать? Как скачать Предприятие «Божий дар» через торрент | qTorrent

% Раздел Тема Автор DL S | L
Зарубежные сериалы [ 6.92 GB ] Предприятие «Божий дар» / Perpetual Grace LTD / Сезон: 1 / Серии: 1-6 из 10 [2019 WEB-DL 720p] MVO [DobleRec] bober100 Скачать
1 | 0
Зарубежные сериалы [ 4.02 GB ] Предприятие «Божий дар» / Perpetual Grace LTD / Сезон: 1 / Серии: 1-6 из 10 [2019 WEBRip] MVO [Octopus] bober100 Скачать
2 | 0


>> Регистрируемся здесь <<






Отзывы и комментарии о схеме читаем и пишем здесь: ---> Отзывы и комментарии о схеме

Новые благодарочки в телеграм довольных пользователей:
скриншот   скриншот   скриншот   скриншот   скриншот
    Дорогой пользователь! Огромная просьба, поблагодарите релизера, оцените раздачу и оставьте свои комментарий, если Вы скачали Предприятие «Божий дар» через торрент бесплатно! Внесите свою лепту в развитие PiratBit!
    Комментировать посты могут только пользователи прошедшие не сложную регистрацию
    Показать сообщения:    

    Предприятие «Божий дар» через торрент
    Скачать бесплатно Предприятие «Божий дар»
    Предприятие «Божий дар» скачать торрент
    Предприятие «Божий дар» смотреть онлайн
    Cкачать фильм Предприятие «Божий дар» бесплатно
    Предприятие «Божий дар» скачать торрент в хорошем качестве
    Предприятие «Божий дар» смотреть онлайн бесплатно в хорошем качестве


    Вы не можете начинать темы
    Вы не можете отвечать на сообщения
    Вы не можете редактировать свои сообщения
    Вы не можете удалять свои сообщения
    Вы не можете голосовать в опросах
    Вы не можете прикреплять файлы к сообщениям
    Вы можете скачивать файлы