iTunes

1+1

iTunes

мы

iTunes

1

1 сезон

Чернобыль

1 сезон

Ральф против интернета

Лицензия

ПШазам

8 сезон

Игра престолов

Лицензия

30
pack

ВАЖНО

!!Акция!!

Alien_RageХит недели

RePack

Resident Evil 21

ИГРА 18+

pack

RePack

Metro:Exodus

!!Акция!!

Alien_Rage

RePack

fifa19

RePack

Assassins Creed: Odyssey

RePack

NEED FOR SPEED™ PAYBACK

3 сезон

9 сезон

Бесстыжие 9 сезон

Все сериалы

все сериалы на PB.wtf

RePack

FAR CRY 5
Ребята, катастрофически не хватает 2730р. для оплаты серверов за ИЮНЬ (всвязи с блокировками трафик упал в 3 раза), 1-2р., выручайте.
  

Частные сыщики / Private Eyes / Сезон: 3 / Серии: 1-8 из 12 (Шелли Эриксен, Тим Килби) [2019, Драма, комедия, криминал, детектив, WEB-DL 1080p] [MVO] (TVShows) piratbit.cc

Частные сыщики через торрент piratbit.cc

Размер: 14.75 GB | Добавлен: 4 д. назад | Торрент скачан:0 раз
Скачать  

08-06-2019 19:15 Частные сыщики Скачать торрент  

Частные сыщики / Private Eyes

Год выпуска: 2019
Страна: Канада
Жанр: Комедия, криминал, драма
Продолжительность: 1 х ~00:45:00
Перевод: Профессиональный (многоголосый) *TVShows*
Субтитры: нет
Режиссеры: Джеймс Дженн, Келли Макин, Садс Сазерленд

В ролях: Джейсон Пристли, Синди Сэмпсон, Бэрри Флэтмэн, Джордин Негри, Эннис Эсмер, Кле Беннетт, Бри Уильямсон, Николь де Боэр, Мими Кузык, Джонни Грэй, Хуан Карлос Велис, Джонас Черник, Рауль Банеджа, Натали Браун, Сара Аллен, Николас Кэмпбелл, Джейн Иствуд, Мэйко Нгуйен, Кенни Робинсон, Мэттью Беннетт, Адам Коуплэнд, Алекс Пэкстон, Паскаль Лангдэйл, Пол Попович, Шэннон Кук-Чун, Джин Юн
Описание: Мэтт Шейд был успешным хоккеистом, которому пророчили большой успех и огромные достижения в мире спорта. Теперь он решил, что ему нужно заняться не спортом, а частным сыском, поэтому вместе с суровым и харизматичным сыщиком Энджи Эверетт решает основать агентство по расследованиям особо сложных дел. Ставки в новой профессии очень высоки. Главные герои пытаются понять сначала, что задумал преступник, а потом стараются взять негодяя с поличным. При этом Энджи и Мэтт — совершенно разные люди. Они пытаются перенять друг у друга лучшие качества, но вот отрицательные стороны нередко выводят героев из себя. В расследованиях одна ошибка может стоить очень дорого!

rating

Качество: WEB-DL 1080p
Контейнер: MKV
Видео: MPEG-4 AVC, 1920x1080, 23.976 fps, ~ 5208 Kbps
Аудио: Русский (AC3, 6 ch, 448 Кбит/с)
Аудио 2: английский (AC3, 6 ch, 384 Кбит/с)
General
Unique ID : 233611592962898588867999067455879322415 (0xAFBFF4CB1E0B062C45C6460A9F831B2F)
Complete name : C:\Users\Desktop\Private.Eyes.S03.1080p.TVShows\Private.Eyes.S03E01.1080p.TVShows.mkv
Format : Matroska
Format version : Version 4 / Version 2
File size : 1.85 GiB
Duration : 43 min 50 s
Overall bit rate : 6 042 kb/s
Encoded date : UTC 2019-06-03 06:49:43
Writing application : mkvmerge v33.1.0 ('Primrose') 64-bit
Writing library : libebml v1.3.7 + libmatroska v1.5.0
Cover : Yes
Attachments : small_cover.jpg / cover.jpg / cover_land.jpg / small_cover_land.jpg

Video
ID : 1
Format : AVC
Format/Info : Advanced Video Codec
Format profile : High@L4
Format settings : CABAC / 4 Ref Frames
Format settings, CABAC : Yes
Format settings, ReFrames : 4 frames
Codec ID : V_MPEG4/ISO/AVC
Duration : 43 min 50 s
Bit rate : 5 208 kb/s
Width : 1 920 pixels
Height : 1 080 pixels
Display aspect ratio : 16:9
Frame rate mode : Constant
Frame rate : 23.976 (23976/1000) FPS
Color space : YUV
Chroma subsampling : 4:2:0
Bit depth : 8 bits
Scan type : Progressive
Bits/(Pixel*Frame) : 0.105
Stream size : 1.59 GiB (86%)
Language : English
Default : Yes
Forced : No
Color range : Limited
Color primaries : BT.709
Transfer characteristics : BT.709
Matrix coefficients : BT.709

Audio #1
ID : 2
Format : AC-3
Format/Info : Audio Coding 3
Codec ID : A_AC3
Duration : 43 min 50 s
Bit rate mode : Constant
Bit rate : 448 kb/s
Channel(s) : 6 channels
Channel positions : Front: L C R, Side: L R, LFE
Sampling rate : 48.0 kHz
Frame rate : 31.250 FPS (1536 SPF)
Bit depth : 16 bits
Compression mode : Lossy
Delay relative to video : -42 ms
Stream size : 140 MiB (7%)
Title : TVShows
Language : Russian
Service kind : Complete Main
Default : Yes
Forced : Yes

Audio #2
ID : 3
Format : AC-3
Format/Info : Audio Coding 3
Codec ID : A_AC3
Duration : 43 min 50 s
Bit rate mode : Constant
Bit rate : 384 kb/s
Channel(s) : 6 channels
Channel positions : Front: L C R, Side: L R, LFE
Sampling rate : 48.0 kHz
Frame rate : 31.250 FPS (1536 SPF)
Bit depth : 16 bits
Compression mode : Lossy
Delay relative to video : -42 ms
Stream size : 120 MiB (6%)
Title : Original
Language : English
Service kind : Complete Main
Default : No
Forced : No

Text
ID : 4
Format : UTF-8
Codec ID : S_TEXT/UTF8
Codec ID/Info : UTF-8 Plain Text
Duration : 43 min 35 s
Bit rate : 120 b/s
Count of elements : 795
Stream size : 38.6 KiB (0%)
Title : English
Language : English
Default : No
Forced : No
скриншот  скриншот  скриншот  
Внимание! Раздача ведётся путём добавления новых серий; при каждом добавлении создаётся новый торрент.
Чтобы начать докачку новой серии, пользователям необходимо сделать следующее:
1. Остановить скачивание.
2. Удалить старый торрент у себя из клиента (старые серии удалять не надо).
3. Скачать новый торрент и запустить его у себя в клиенте вместо старого, при этом указать клиенту путь в старую папку куда и должно происходить скачивание новых серий.
Ваш клиент при этом должен произвести хеширование (проверку) старой папки (если не производит сам - помогите ему сделать это), и будет докачивать только те серии которых у вас ещё нет. Старые серии при этом не удаляются, а продолжают раздаваться!
Eсли вы уже удалили старые серии, то предотвратить повторную закачку старых серий можно, отжав галочку в соответствующих местах при запуске нового торрента.
piratbit.cc



Скачать Частные сыщики через торрент https://i107.fastpic.ru/big/2018/1128/41/abd1a4c66967fe4ae86b59e9a21a9a41.jpg Скачать фильм Частные сыщики через торрент бесплантно в хорошем качестве Описание: Мэтт Шейд был успешным хоккеистом, которому пророчили большой успех и огромные достижения в мире спорта. Теперь он решил, что ему ... 5 10 1
Торрент: Зарегистрирован [2019-07-14 15:24] · скачан: 0 раз
Статус: √ проверено
Размер: 14.75 GB
Как cкачать? Как скачать Частные сыщики через торрент | qTorrent

% Раздел Тема Автор DL S | L
Зарубежные сериалы [ 14.6 GB ] Частные сыщики / Private Eyes / Сезон: 3 / Серии: 1-8 из 12 [2019 WEB-DL 1080p] [DVO] killermax2013 Скачать
2 | 0


>> Регистрируемся здесь <<






Отзывы и комментарии о схеме читаем и пишем здесь: ---> Отзывы и комментарии о схеме

Новые благодарочки в телеграм довольных пользователей:
скриншот   скриншот   скриншот   скриншот   скриншот
    Дорогой пользователь! Огромная просьба, поблагодарите релизера, оцените раздачу и оставьте свои комментарий, если Вы скачали Частные сыщики через торрент бесплатно! Внесите свою лепту в развитие PiratBit!
    Комментировать посты могут только пользователи прошедшие не сложную регистрацию
    Показать сообщения:    

    Частные сыщики через торрент
    Скачать бесплатно Частные сыщики
    Частные сыщики скачать торрент
    Частные сыщики смотреть онлайн
    Cкачать фильм Частные сыщики бесплатно
    Частные сыщики скачать торрент в хорошем качестве
    Частные сыщики смотреть онлайн бесплатно в хорошем качестве


    Вы не можете начинать темы
    Вы не можете отвечать на сообщения
    Вы не можете редактировать свои сообщения
    Вы не можете удалять свои сообщения
    Вы не можете голосовать в опросах
    Вы не можете прикреплять файлы к сообщениям
    Вы можете скачивать файлы