iTunes

1+1

iTunes

мы

iTunes

1

1 сезон

Чернобыль

1 сезон

Ральф против интернета

Лицензия

ПШазам

8 сезон

Игра престолов

Лицензия

30
pack

ВАЖНО

!!Акция!!

Alien_RageХит недели

RePack

Resident Evil 21

ИГРА 18+

pack

RePack

Metro:Exodus

!!Акция!!

Alien_Rage

RePack

fifa19

RePack

Assassins Creed: Odyssey

RePack

NEED FOR SPEED™ PAYBACK

3 сезон

9 сезон

Бесстыжие 9 сезон

Все сериалы

все сериалы на PB.wtf

RePack

FAR CRY 5
Ребята, катастрофически не хватает 2730р. для оплаты серверов за ИЮНЬ (всвязи с блокировками трафик упал в 3 раза), 1-2р., выручайте.
  

Рассказ служанки / The Handmaid's Tale / Сезон: 3 / Серии: 1-8 из 13 (Майк Баркер) [2018, фантастика, триллер, драма, WEB-DL 1080p] MVO [Lostfilm] piratbit.cc

Рассказ служанки через торрент piratbit.cc

Раздают: 3 [ 101 KB/s ] Качают: 7 [ 0 KB/s ]
Размер: 9.74 GB | Добавлен: 4 д. назад | Торрент скачан:6 раз
Скачать  

09-06-2019 14:17 Рассказ служанки Скачать торрент  

Рассказ служанки | The Handmaid's Tale
«We will bear no more»
Производство: США
Год выпуска: 2019
Жанр: фантастика, триллер, драма
Продолжительность: ~ 00:50:00 серия
Премьера (мир): 24 апреля 2017
Премьера (РФ): 27 апреля 2017
Перевод: Профессиональный (многоголосый закадровый) | Lostfilm
Субтитры: Eng

Режиссёр: Майк Баркер, Кари Скогланд, Рид Морано

В ролях:

Элизабет Мосс, Джозеф Файнс, Ивонн Страховски, Алексис Бледел, Мадлен Брюэр, Энн Дауд, ОуТи Фагбенл, Макс Мингелла, Самира Уайли

Описание:

Действие разворачивается в будущем, в республике Гилеад, где у власти стоят военные. В стране жестокие порядки и нравы, уважением в обществе пользуются только офицеры и их жёны. Помимо тоталитарного устройства общества, в мире будущего есть серьёзная проблема — бесплодие. Лишь каждая сотая женщина способна к воспроизведению потомства. Чтобы продолжить офицерский род, семьи берут в дом служанку — суррогатную мать из числа простых женщин, способных к деторождению. Исполнив долг, служанка должна расстаться со своим ребёнком и перейти на службу к новым хозяевам.




Качество: WEB-DL 1080p
Формат: MKV

Видео: AVC, 1920 x 1080 (1.778), 23.976 fps, ~3169 kbps
Аудио Rus: AC-3, 48 kHz, 2 ch, 192 kbps |Lostfilm|
Аудио Eng: AC-3, 48 kHz, 2 ch, 192 kbps |Original|
Общее
Уникальный идентификатор : 248025197033791763365284619462867119239 (0xBA97EA5731F540E7176B619C8BCF6C87)
Полное имя : E:\_Сериалы\_Сериалы\Рассказ служанки\The.Handmaid's.Tale.S03.WEB-DL.720p.Rus.Eng.LostFilm\The.Handmaid's.Tale.S03E01.WEB-DL.720p.Rus.Eng.LostFilm.mkv
Формат : Matroska
Версия формата : Version 4
Размер файла : 1,24 Гбайт
Продолжительность : 50 м. 3 с.
Общий поток : 3555 Кбит/сек
Дата кодирования : UTC 2019-06-08 06:03:25
Программа кодирования : mkvmerge v34.0.0 ('Sight and Seen') 64-bit
Библиотека кодирования : libebml v1.3.7 + libmatroska v1.5.0

Видео
Идентификатор : 1
Формат : AVC
Формат/Информация : Advanced Video Codec
Профиль формата : High@L4
Настройки формата : CABAC / 4 Ref Frames
Параметр CABAC формата : Да
Параметр RefFrames формата : 4 кадра
Идентификатор кодека : V_MPEG4/ISO/AVC
Продолжительность : 50 м. 3 с.
Битрейт : 3169 Кбит/сек
Ширина : 1920 пикселей
Высота : 1080 пикселей
Соотношение сторон : 16:9
Режим частоты кадров : Постоянный
Частота кадров : 23,976 (24000/1001) кадра/сек
Цветовое пространство : YUV
Субдискретизация насыщенности : 4:2:0
Битовая глубина : 8 бит
Тип развёртки : Прогрессивная
Бит/(Пиксели*Кадры) : 0.064
Размер потока : 1,11 Гбайт (89%)
Язык : English
Default : Да
Forced : Нет

Аудио #1
Идентификатор : 2
Формат : AC-3
Формат/Информация : Audio Coding 3
Коммерческое название : Dolby Digital
Идентификатор кодека : A_AC3
Продолжительность : 50 м. 3 с.
Вид битрейта : Постоянный
Битрейт : 192 Кбит/сек
Каналы : 2 канала
Channel layout : L R
Частота : 48,0 КГц
Частота кадров : 31,250 кадров/сек (1536 SPF)
Битовая глубина : 16 бит
Метод сжатия : С потерями
Размер потока : 68,7 Мбайт (5%)
Язык : Russian
ServiceKind/String : Complete Main
Default : Да
Forced : Нет

Аудио #2
Идентификатор : 3
Формат : AC-3
Формат/Информация : Audio Coding 3
Коммерческое название : Dolby Digital
Идентификатор кодека : A_AC3
Продолжительность : 50 м. 3 с.
Вид битрейта : Постоянный
Битрейт : 192 Кбит/сек
Каналы : 2 канала
Channel layout : L R
Частота : 48,0 КГц
Частота кадров : 31,250 кадров/сек (1536 SPF)
Битовая глубина : 16 бит
Метод сжатия : С потерями
Размер потока : 68,7 Мбайт (5%)
Язык : English
ServiceKind/String : Complete Main
Default : Нет
Forced : Нет

Текст
Идентификатор : 4
Формат : UTF-8
Идентификатор кодека : S_TEXT/UTF8
Идентификатор кодека/Информация : UTF-8 Plain Text
Продолжительность : 48 м. 31 с.
Битрейт : 35 бит/сек
ElementCount : 512
Размер потока : 12,5 Кбайт (0%)
Язык : English
Default : Нет
Forced : Нет
Раздача ведётся путём добавления новых серий; при каждом добавлении создаётся новый торрент.
Чтобы начать докачку новой серии, пользователям необходимо сделать следующее:
1. остановить скачивание,
2. удалить старый торрент у себя из клиента (старые серии удалять не надо),
3. скачать новый торрент и запустить его у себя в клиенте вместо старого, при этом указать клиенту путь в старую папку, куда и должно происходить скачивание новых серий.

Ваш клиент при этом должен произвести хеширование (проверку) старой папки (если не производит сам - помогите ему сделать это), и будет докачивать только те серии которых у вас ещё нет. Старые серии при этом не удаляются, а продолжают раздаваться!

Eсли вы уже удалили старые серии, то предотвратить повторную закачку старых серий можно, отжав галочку в соответствующих местах при запуске нового торрента. По возможности, желательно не удалять старые серии как можно дольше, чтобы релизёр не столько продолжал раздавать старые серии, а смог сконцентрироваться на новых.

Совет для тех, кто не хочет ждать перехеширования:
Создайте ещё одну папку рядом с папкой сериала (рядом, а не в ней!!!). Каждую новую серию после удачной загрузки копируйте в новую папку так чтобы ваша основная папка всегда была пуста. Когда ваш новый торрент предложит вам закачать все файлы, выберете только последнюю. Для сидирования же укажите адрес новой папки.

Как закачать отдельный файл из торрента или докачать ранее пропущенные файлы торрента!
1. Открыть торрент
2. Снять галки с тех файлов торрента, которые мы не хотим закачивать. Оставляем только на нужных нам файлах (файле).
3. Нажать О.К.

В клиенте utorrent

Инструкция

1) Открыть торрент


2) Снять галки с тех файлов торрента, которые мы не хотим закачивать:

* либо вручную, снимая с каждого файла галку( скрин №1)
* либо, нажав кнопку "Снять метки (Select None)", сняв сразу со всех файлов(скрин №2)
№1

№2

Оставляем только на нужных нам файлах (файле).

3)Нажать О.К
Приятного просмотра!!!piratbit.cc



Скачать Рассказ служанки через торрент https://i3.imageban.ru/out/2019/06/08/8ee5df2fb2452de20423547374ccd0c1.png Скачать фильм Рассказ служанки через торрент бесплантно в хорошем качестве Описание:Действие разворачивается в будущем, в республике Гилеад, где у власти стоят военные. В стране жестокие порядки и нравы, уважением ... 10 10 2
Торрент: Зарегистрирован [2019-07-14 14:17] · скачан: 6 раз
Статус: √ проверено
Размер: 9.74 GB
Как cкачать? Как скачать Рассказ служанки через торрент | qTorrent



Последний раз редактировалось: bober100 (2019-07-08 19:33), всего редактировалось 1 раз


>> Регистрируемся здесь <<






Отзывы и комментарии о схеме читаем и пишем здесь: ---> Отзывы и комментарии о схеме

Новые благодарочки в телеграм довольных пользователей:
скриншот   скриншот   скриншот   скриншот   скриншот
    Дорогой пользователь! Огромная просьба, поблагодарите релизера, оцените раздачу и оставьте свои комментарий, если Вы скачали Рассказ служанки через торрент бесплатно! Внесите свою лепту в развитие PiratBit!
    Комментировать посты могут только пользователи прошедшие не сложную регистрацию
    Показать сообщения:    

    Рассказ служанки через торрент
    Скачать бесплатно Рассказ служанки
    Рассказ служанки скачать торрент
    Рассказ служанки смотреть онлайн
    Cкачать фильм Рассказ служанки бесплатно
    Рассказ служанки скачать торрент в хорошем качестве
    Рассказ служанки смотреть онлайн бесплатно в хорошем качестве


    Вы не можете начинать темы
    Вы не можете отвечать на сообщения
    Вы не можете редактировать свои сообщения
    Вы не можете удалять свои сообщения
    Вы не можете голосовать в опросах
    Вы не можете прикреплять файлы к сообщениям
    Вы можете скачивать файлы