Лицензия

30

iTunes

мы

iTunes

1

1 сезон

Чернобыль

1 сезон

Ральф против интернета

MVO

Покемон. Детектив Пикачу

8 сезон

Игра престолов

iTunes

1+1

ИГРА 18+

pack

ВАЖНО

!!Акция!!

Alien_RageХит недели

RePack

Resident Evil 21
pack

RePack

Metro:Exodus

!!Акция!!

Alien_Rage

RePack

fifa19

RePack

Assassins Creed: Odyssey

RePack

NEED FOR SPEED™ PAYBACK

3 сезон

9 сезон

Бесстыжие 9 сезон

Все сериалы

все сериалы на PB.wtf

RePack

FAR CRY 5
Ребята, катастрофически не хватает 2730р. для оплаты серверов за МАЙ (всвязи с блокировками трафик упал в 3 раза), 1-2р., выручайте.
  

Детектив Ди: Четыре Небесных царя 3Д / Di Renjie zhi Si da tian wang / Detective Dee The Four Heavenly Kings 3D (Цуй Харк) [2018, фэнтези, боевик, детектив, приключения, BDRip 1080p] [Half OverUnder] MVO [HDrezka Studio] piratbit.cc

Детектив Ди: Четыре Небесных царя 3Д через торрент piratbit.cc

Раздают: 4 [ 27 KB/s ]
Размер: 22.99 GB | Добавлен: 11 д. назад | Торрент скачан:13 раз
Скачать  

09-06-2019 15:39 Детектив Ди: Четыре Небесных царя 3Д Скачать торрент  

Детектив Ди: Четыре Небесных царя 3Д
Di Renjie zhi Si da tian wang
Detective Dee The Four Heavenly Kings 3D

Год выпуска: 2018
Страна: Китай, Гонконг
Жанр: фэнтези, боевик, детектив, приключения
Продолжительность: 02:12:04
Перевод: Профессиональный (многоголосый) | HDrezka Studio
Субтитры: Русские Полные (перевод by94), English Full

Режиссер: Цуй Харк

rating

В ролях:

Марк Чао, Карина Лау, Уильям Фэн, Кенни Линь, Сандра Ма, Этан Жуань

Описание:

Третья часть саги о детективе Ди повествует о его новых невероятных приключениях. Получив в дар от императора могущественный артефакт, способный укрощать драконов, детектив не только обрел новые способности, но и попал под подозрение императрицы Ву — та забеспокоилась, что он может попытаться захватить Влacть, и пожелала любой ценой вернуть артефакт обратно. Теперь детективу Ди предстоит защитить свое имя и раскрыть таинственное дело, в котором тесно переплетаются дворцовые интриги и сверхъестественные события, охватившие город.

Качество: BDRip 1080p
Формат: MKV

Видео: AVC / 1920х1080p / 23,976 fps / 23.0 Mbps
Аудио#1: Русский / AC3 / 48 KHz / 5.1 ch / 640 Kbps (MVO - HDrezka) (перемонтаж в 5.1 - Ash61)
Аудио#2: Китайский / AC3 / 48 KHz / 5.1 ch / 640 Kbps (Original BD 3D Ger)
Аудио#3: Немецкий / AC3 / 48 KHz / 5.1 ch / 640 Kbps (Dubbing - BD 3D Ger)
Формат 3D: Half OverUnder / Вертикальная анаморфная стереопара
Порядок ракурсов: левый ракурс первый
скриншот  скриншот  скриншот  скриншот  скриншот  

General
Unique ID : 192507430909207809948168945086355220095 (0x90D3952357482B698C7032EC0FB0267F)
Complete name : J:DetectiveDee3(2018)3D-hOU(Ash61)MVODetectiveDee3(2018)3D-hOU(Ash61)MVO.mkv
Format : Matroska
Format version : Version 2
File size : 23.0 GiB
Duration : 2h 12mn
Overall bit rate : 24.9 Mbps
Movie name : Детектив Ди: Четыре Небесных царя / Di Renjie: zhi si da tian wang / Detective Dee: The Four Heavenly Kings (2018) in 3D
Encoded date : UTC 2019-06-07 20:57:02
Writing application : mkvmerge v5.8.0 ('No Sleep / Pillow') built on Sep 2 2012 15:37:04
Writing library : libebml v1.2.3 + libmatroska v1.3.0

Video
ID : 1
Format : AVC
Format/Info : Advanced Video Codec
Format profile : High@L4.1
Format settings, CABAC : Yes
Format settings, ReFrames : 4 frames
Codec ID : V_MPEG4/ISO/AVC
Duration : 2h 12mn
Bit rate : 23.0 Mbps
Width : 1 920 pixels
Height : 1 080 pixels
Display aspect ratio : 16:9
Frame rate mode : Constant
Frame rate : 23.976 (24000/1001) fps
Color space : YUV
Chroma subsampling : 4:2:0
Bit depth : 8 bits
Scan type : Progressive
Bits/(Pixel*Frame) : 0.463
Stream size : 20.8 GiB (90%)
Title : BDRip by Ash61
Writing library : x264 core 146 r2538 121396c
Encoding settings : cabac=1 / ref=4 / deblock=1:-3:-3 / analyse=0x3:0x113 / me=umh / subme=10 / psy=1 / psy_rd=1.00:0.00 / mixed_ref=1 / me_range=32 / chroma_me=1 / trellis=2 / 8x8dct=1 / cqm=0 / deadzone=21,11 / fast_pskip=0 / chroma_qp_offset=-2 / threads=12 / lookahead_threads=3 / sliced_threads=0 / nr=0 / decimate=0 / interlaced=0 / bluray_compat=0 / constrained_intra=0 / bframes=10 / b_pyramid=2 / b_adapt=2 / b_bias=0 / direct=3 / weightb=1 / open_gop=0 / weightp=2 / keyint=250 / keyint_min=23 / scenecut=40 / intra_refresh=0 / rc_lookahead=60 / rc=2pass / mbtree=0 / bitrate=23000 / ratetol=1.0 / qcomp=0.70 / qpmin=0 / qpmax=69 / qpstep=4 / cplxblur=20.0 / qblur=0.5 / vbv_maxrate=40000 / vbv_bufsize=30000 / nal_hrd=none / filler=0 / frame-packing=4 / ip_ratio=1.40 / pb_ratio=1.30 / aq=1:0.70
Language : Chinese
Default : Yes
Forced : No

Audio #1
ID : 2
Format : AC-3
Format/Info : Audio Coding 3
Mode extension : CM (complete main)
Format settings, Endianness : Big
Codec ID : A_AC3
Duration : 2h 12mn
Bit rate mode : Constant
Bit rate : 640 Kbps
Channel(s) : 6 channels
Channel positions : Front: L C R, Side: L R, LFE
Sampling rate : 48.0 KHz
Frame rate : 31.250 fps (1536 spf)
Compression mode : Lossy
Stream size : 605 MiB (3%)
Title : MVO - HDrezka (перемонтаж в 5.1 - Ash61)
Language : Russian
Default : Yes
Forced : No

Audio #2
ID : 3
Format : AC-3
Format/Info : Audio Coding 3
Mode extension : CM (complete main)
Format settings, Endianness : Big
Codec ID : A_AC3
Duration : 2h 12mn
Bit rate mode : Constant
Bit rate : 640 Kbps
Channel(s) : 6 channels
Channel positions : Front: L C R, Side: L R, LFE
Sampling rate : 48.0 KHz
Frame rate : 31.250 fps (1536 spf)
Compression mode : Lossy
Stream size : 605 MiB (3%)
Title : Original
Language : Chinese
Default : No
Forced : No

Audio #3
ID : 4
Format : AC-3
Format/Info : Audio Coding 3
Mode extension : CM (complete main)
Format settings, Endianness : Big
Codec ID : A_AC3
Duration : 2h 12mn
Bit rate mode : Constant
Bit rate : 640 Kbps
Channel(s) : 6 channels
Channel positions : Front: L C R, Side: L R, LFE
Sampling rate : 48.0 KHz
Frame rate : 31.250 fps (1536 spf)
Compression mode : Lossy
Stream size : 605 MiB (3%)
Title : Dubbing (BD Ger)
Language : German
Default : No
Forced : No

Menu
00:00:00.000 : :1
00:09:37.533 : :2
00:20:46.912 : :3
00:31:00.316 : :4
00:40:30.969 : :5
00:47:54.746 : :6
01:00:14.485 : :7
01:08:47.331 : :8
01:22:26.564 : :9
01:33:52.667 : :10
01:42:48.871 : :11
01:59:52.975 : :12

piratbit.cc



Скачать Детектив Ди: Четыре Небесных царя 3Д через торрент https://a.radikal.ru/a23/1906/d2/bf8547aaf004.png Скачать фильм Детектив Ди: Четыре Небесных царя 3Д через торрент бесплантно в хорошем качестве Описание: Третья часть саги о детективе Ди повествует о его новых невероятных приключениях. Получив в дар от императора могущественный ... 10 10 4
Торрент: Зарегистрирован [2019-06-09 15:39] · скачан: 13 раз
Статус: √ проверено
Размер: 22.99 GB
Как cкачать? Как скачать Детектив Ди: Четыре Небесных царя 3Д через торрент | qTorrent


>> Регистрируемся здесь <<






Отзывы и комментарии о схеме читаем и пишем здесь: ---> Отзывы и комментарии о схеме

Новые благодарочки в телеграм довольных пользователей:
скриншот   скриншот   скриншот   скриншот   скриншот
    Дорогой пользователь! Огромная просьба, поблагодарите релизера, оцените раздачу и оставьте свои комментарий, если Вы скачали Детектив Ди: Четыре Небесных царя 3Д через торрент бесплатно! Внесите свою лепту в развитие PiratBit!
    Комментировать посты могут только пользователи прошедшие не сложную регистрацию
    Показать сообщения:    

    Детектив Ди: Четыре Небесных царя 3Д через торрент
    Скачать бесплатно Детектив Ди: Четыре Небесных царя 3Д
    Детектив Ди: Четыре Небесных царя 3Д скачать торрент
    Детектив Ди: Четыре Небесных царя 3Д смотреть онлайн
    Cкачать фильм Детектив Ди: Четыре Небесных царя 3Д бесплатно
    Детектив Ди: Четыре Небесных царя 3Д скачать торрент в хорошем качестве
    Детектив Ди: Четыре Небесных царя 3Д смотреть онлайн бесплатно в хорошем качестве


    Вы не можете начинать темы
    Вы не можете отвечать на сообщения
    Вы не можете редактировать свои сообщения
    Вы не можете удалять свои сообщения
    Вы не можете голосовать в опросах
    Вы не можете прикреплять файлы к сообщениям
    Вы можете скачивать файлы