Лицензия

30

iTunes

мы

iTunes

1

1 сезон

Чернобыль

1 сезон

Ральф против интернета

MVO

Покемон. Детектив Пикачу

8 сезон

Игра престолов

iTunes

1+1

ИГРА 18+

pack

ВАЖНО

!!Акция!!

Alien_RageХит недели

RePack

Resident Evil 21
pack

RePack

Metro:Exodus

!!Акция!!

Alien_Rage

RePack

fifa19

RePack

Assassins Creed: Odyssey

RePack

NEED FOR SPEED™ PAYBACK

3 сезон

9 сезон

Бесстыжие 9 сезон

Все сериалы

все сериалы на PB.wtf

RePack

FAR CRY 5
Ребята, катастрофически не хватает 2730р. для оплаты серверов за МАЙ (всвязи с блокировками трафик упал в 3 раза), 1-2р., выручайте.
  

Встреча выпускников 1.0 / Klassentreffen 1.0 (Тиль Швайгер) [2018, комедия, BDRip 1080p] DUB [iTunes] piratbit.cc

Встреча выпускников 1.0 через торрент piratbit.cc

Раздают: 3 [ 52 KB/s ]
Размер: 7.85 GB | Добавлен: 6 д. назад | Торрент скачан:56 раз
Скачать  

10-06-2019 16:58 Встреча выпускников 1.0 Скачать торрент  

Встреча выпускников 1.0 / Klassentreffen 1.0
Год выпуска: 2018
Страна: Германия
Жанр: комедия
Продолжительность: 02:07:18
Перевод: Дублированный | iTunes
Субтитры: отсутствуют

Режиссер: Тиль Швайгер

rating

В ролях:

Тиль Швайгер, Самуэль Финци, Милан Пешель, Лили Швайгер, Штефани Штаппенбек, Жанетт Хайн, Дэвид Шюттер, Катарина Шюттлер, Симон Шварц, Бьянка Наврат

Описание:

Спустя тридцать лет после окончания школы, трое бывших одноклассников собрались вместе, чтобы отпраздновать встречу выпускников.

Качество: BDRip 1080p
Формат: MKV

Видео: MPEG-4 AVC, 8 439 Кбит/с, 1920х800
Аудио: AC3, 6 ch, 384 Кбит/с
скриншот  скриншот  скриншот  скриншот  

General
Unique ID : 53480220855108953916580789747468014403 (0x283BEA76F6803AE27E2ED7A932751343)
Complete name : Встреча выпускников 1.0.(2018).BDRip.1080p.D.[iTunes].mkv
Format : Matroska
Format version : Version 4
File size : 7.85 GiB
Duration : 2 h 7 min
Overall bit rate mode : Variable
Overall bit rate : 8 826 kb/s
Movie name : Встреча выпускников 1.0 / Klassentreffen 1.0 (2018)
Encoded date : UTC 2019-06-18 13:44:28
Writing application : mkvmerge v34.0.0 ('Sight and Seen') 64-bit
Writing library : libebml v1.3.7 + libmatroska v1.5.0
Attachments : poster 1.jpg / poster 2.jpg

Video
ID : 1
Format : AVC
Format/Info : Advanced Video Codec
Format profile : High@L4.1
Format settings : CABAC / 3 Ref Frames
Format settings, CABAC : Yes
Format settings, Reference : 3 frames
Codec ID : V_MPEG4/ISO/AVC
Duration : 2 h 7 min
Bit rate mode : Variable
Bit rate : 8 439 kb/s
Maximum bit rate : 15.0 Mb/s
Width : 1 920 pixels
Height : 800 pixels
Display aspect ratio : 2.40:1
Frame rate mode : Constant
Frame rate : 23.976 (24000/1001) FPS
Color space : YUV
Chroma subsampling : 4:2:0
Bit depth : 8 bits
Scan type : Progressive
Bits/(Pixel*Frame) : 0.229
Stream size : 7.50 GiB (96%)
Writing library : x264 core 148 r2744 b97ae06
Encoding settings : cabac=1 / ref=4 / deblock=1:0:0 / analyse=0x3:0x133 / me=umh / subme=9 / psy=1 / psy_rd=1.00:0.00 / mixed_ref=1 / me_range=24 / chroma_me=1 / trellis=2 / 8x8dct=1 / cqm=0 / deadzone=21,11 / fast_pskip=1 / chroma_qp_offset=-2 / threads=18 / lookahead_threads=1 / sliced_threads=0 / slices=4 / nr=0 / decimate=1 / interlaced=0 / bluray_compat=1 / constrained_intra=0 / bframes=3 / b_pyramid=1 / b_adapt=2 / b_bias=0 / direct=3 / weightb=1 / open_gop=1 / weightp=1 / keyint=23 / keyint_min=1 / scenecut=40 / intra_refresh=0 / rc_lookahead=23 / rc=crf / mbtree=0 / crf=18.0 / qcomp=0.60 / qpmin=0 / qpmax=51 / qpstep=4 / vbv_maxrate=15000 / vbv_bufsize=15000 / crf_max=0.0 / nal_hrd=vbr / filler=0 / ip_ratio=1.40 / pb_ratio=1.30 / aq=0
Language : German
Default : Yes
Forced : No
Color range : Limited
Color primaries : BT.709
Transfer characteristics : BT.709
Matrix coefficients : BT.709

Audio
ID : 2
Format : AC-3
Format/Info : Audio Coding 3
Commercial name : Dolby Digital
Codec ID : A_AC3
Duration : 2 h 7 min
Bit rate mode : Constant
Bit rate : 384 kb/s
Channel(s) : 6 channels
Channel layout : L R C LFE Ls Rs
Sampling rate : 48.0 kHz
Frame rate : 31.250 FPS (1536 SPF)
Bit depth : 16 bits
Compression mode : Lossy
Stream size : 350 MiB (4%)
Title : DUB_[iTunes]
Language : Russian
Service kind : Complete Main
Default : Yes
Forced : No

Menu
00:00:00.000 : Глава 01
00:05:00.000 : Глава 02
00:10:00.000 : Глава 03
00:15:00.000 : Глава 04
00:20:00.000 : Глава 05
00:25:00.000 : Глава 06
00:30:00.000 : Глава 07
00:35:00.000 : Глава 08
00:40:00.000 : Глава 09
00:45:00.000 : Глава 10
00:50:00.000 : Глава 11
00:55:00.000 : Глава 12
01:00:00.000 : Глава 13
01:05:00.000 : Глава 14
01:10:00.000 : Глава 15
01:15:00.000 : Глава 16
01:20:00.000 : Глава 17
01:25:00.000 : Глава 18
01:30:00.000 : Глава 19
01:35:00.000 : Глава 20
01:40:00.000 : Глава 21
01:45:00.000 : Глава 22
01:50:00.000 : Глава 23
01:55:00.000 : Глава 24
02:00:00.000 : Глава 25
02:05:00.000 : Глава 26

piratbit.cc



Скачать Встреча выпускников 1.0 через торрент https://i1.imageban.ru/out/2019/06/18/fee9b9603f71e5b82a2d188a7bd72366.jpg Скачать фильм Встреча выпускников 1.0 через торрент бесплантно в хорошем качестве Описание: Спустя тридцать лет после окончания школы, трое бывших одноклассников собрались вместе, чтобы отпраздновать встречу ... 8.5 10 4
Торрент: Зарегистрирован [2019-06-19 06:43] · скачан: 56 раз
Статус: √ проверено
Размер: 7.85 GB
Как cкачать? Как скачать Встреча выпускников 1.0 через торрент | qTorrent

% Раздел Тема Автор DL S | L
T Фильмы [HD 720p, 1080p] (Хороший звук DUB, MVO) [ 4.69 GB ] Встреча выпускников 1.0 / Klassentreffen 1.0 [2018 BDRip 720p] bober100 Скачать
6 | 0
Фильмы 2018 [DVDrip, WEB-DLRip, HDrip] (DUB, MVO) [ 1.46 GB ] Встреча выпускников 1.0 / Klassentreffen 1.0 [2018 HDRip] killermax2013 Скачать
7 | 0


>> Регистрируемся здесь <<






Отзывы и комментарии о схеме читаем и пишем здесь: ---> Отзывы и комментарии о схеме

Новые благодарочки в телеграм довольных пользователей:
скриншот   скриншот   скриншот   скриншот   скриншот
    Дорогой пользователь! Огромная просьба, поблагодарите релизера, оцените раздачу и оставьте свои комментарий, если Вы скачали Встреча выпускников 1.0 через торрент бесплатно! Внесите свою лепту в развитие PiratBit!
    Комментировать посты могут только пользователи прошедшие не сложную регистрацию
    Показать сообщения:    

    Встреча выпускников 1.0 через торрент
    Скачать бесплатно Встреча выпускников 1.0
    Встреча выпускников 1.0 скачать торрент
    Встреча выпускников 1.0 смотреть онлайн
    Cкачать фильм Встреча выпускников 1.0 бесплатно
    Встреча выпускников 1.0 скачать торрент в хорошем качестве
    Встреча выпускников 1.0 смотреть онлайн бесплатно в хорошем качестве


    Вы не можете начинать темы
    Вы не можете отвечать на сообщения
    Вы не можете редактировать свои сообщения
    Вы не можете удалять свои сообщения
    Вы не можете голосовать в опросах
    Вы не можете прикреплять файлы к сообщениям
    Вы можете скачивать файлы